Скачать через торрент музыку Ennio Morricone - Gold Edition - 50 Movie Themes Hits бесплатно без регистрации torrent

Статистика раздачи
Размер:  895 MB   |    Зарегистрирован:  7 лет 4 месяца   |    .torrent скачан:  42 раза   |   
Раздают:  1  
   
загрузка...
 
Автор Сообщение

Galfimbul

avatar Galfimbul


Ennio Morricone - Gold Edition - 50 Movie Themes Hits (3CD)

Страна: UK
Жанр: Soundtrack
Год выпуска: 2005
Формат: APE (image + .cue)
Битрейт аудио: lossless
Продолжительность: 60:50:56 + 61:20:15 + 60:33:59
Трэклист:


CD1

01. Giu' la testa [Giu' la testa] (4:17)
02. Metti una sera a cena [Metti una sera a cena] (4:31)
03. La califfa [La califfa] (2:43)
04. Per qualche dollaro in piu' [Per qualche dollaro in piu'] (2:53)
05. Novecento [Romanzo] (4:10)
06. Il gatto a nove code [Ninna nanna in blu'] (2:42)
07. Scusi, facciamo l'amore? [A Lydia] (3:19)
08. Viaggio con Anita [Viaggio con Anita] (2:52)
09. Gott mit uns [Lontano] (4:30)
10. Tepepa [Viva la revolution] (4:24)
11. L'uomo delle stelle [L'uomo delle stelle] (3:09)
12. Il diavolo nel cervello [La ragione, il cuore, l'amore] (3:32)
13. Il trio infernale [Il trio infernale] (4:16)
14. The endless game [The endless game] (3:53)
15. Faccia a faccia [Faccia a faccia] (3:14)
16. Oceano [Oceano] (6:18)

CD2

01. IL BUONO, IL BRUTTO, IL CATTIVO (2:46)
02. C'ERA UNA VOLTA IL WEST (3:09)
03. INDAGINE SU UN CITTADINO AL DI SOPRA DI OGNI SOSPETTO (3:31)
04. IL DESERTO DEI TARTARI (4:15)
05. LA VENEXIANA (2:07)
06. VERUSCHKA (3:01)
07. DIMENTICARE PALERMO (4:25)
08. QUESTA SPECIE D'AMORE (2:38)
09. VAMOS A MATAR COMPANEROS (2:27)
10. IL SEGRETO (3:37)
11. L'ALIBI (2:55)
12. LA CUGINA (4:15)
13. IL MERCENARIO (4:47)
14. L'UCCELLO DALLE PIUME DI CRISTALLO (5:15)
15. LA SCOPERTA DELL'AMERICA (3:35)
16. MOSCA ADDIO (4:52)
17. MADDALENA (3:29)

CD3

01. NUOVO CINEMA PARADISO (2:34)
02. IL GIRO DEL MONDO DEGLI INNAMORATI DIPEYNET (4:56)
03. IL MIO NOME E' NESSUNO (3:14)
04. QUEIMADA (5:09)
05. LA DONNA INVISIBILE (5:26)
06. IL PRINCIPE DEL DESERTO (3:51)
07. TRE COLONNE IN CRONACA (3:22)
08. QUATTRO MOSCHE DI VELLUTO GRIGIO (3:41)
09. MATRIMONIO COL VIZIETTO (3:22)
10. I CRUDELE (2:41)
11. LE DUE STAGIONI DELLA VITA (3:45)
12. INVITO ALLO SPORT (3:47)
13. GLI INTOCCABILI (2:14)
14. CORLEONE (3:47)
15. D'AMORE SI MUORE (3:52)
16. UN'ESERCITO DI 5 UOMINI (3:03)
17. LA RAGAZZA E IL GENERALE (1:41)

Доп. информация: Сканы блинов и ковров в комплекте.
Отчёт EAC об извлечении, выполненном 26. сентября 2007, 18:12 для диска:
Ennio Morricone / Gold Edition 50 Movie Themes Hits CD1

Дисковод: Optiarc DVD RW AD-5170A Adapter: 1 ID: 1
Режим чтения: Достоверный (C2: нет, Точный поток: да, Отключение кэша: да)
Коррекция смещения при чтении: 48
Способность читать области Lead-in и Lead-out : Нет

Выходной формат: Внутренние WAV-операции
44.100 Гц; 16 бит; стерео

Другие параметры:
Заполнение пропущенных сэмплов тишиной : Да
Удаление блоков с тишиной в начале и конце : Нет
Установленный внешний ASPI-интерфейс

Характеристики диапазона извлечения и сообщения об ошибках
Выбранный диапазон
Имя файла M:\Ennio Morricone - Gold Edition 50 Movie Themes Hits CD1\Ennio Morricone - Gold Edition 50 Movie Themes Hits CD1.wav

Пиковый уровень 100.0 %
Качество диапазона 100.0 %
CRC 0BC1CDFE
Копирование... OK

Ошибок не произошло

Конец отчёта
REM GENRE Soundtrack
REM DATE 2005
REM DISCID F00E3A10
REM COMMENT "ExactAudioCopy v0.95b3"
PERFORMER "Ennio Morricone"
TITLE "Gold Edition 50 Movie Themes Hits CD1"
FILE "Ennio Morricone - Gold Edition 50 Movie Themes Hits CD1.wav" WAVE
TRACK 01 AUDIO
TITLE "Giu' la testa [Giu' la testa]"
PERFORMER "Ennio Morricone"
ISRC 000000000000
FLAGS DCP
INDEX 01 00:00:00
TRACK 02 AUDIO
TITLE "Metti una sera a cena [Metti una sera a cena]"
PERFORMER "Ennio Morricone"
ISRC 000000000000
FLAGS DCP
INDEX 01 04:16:43
TRACK 03 AUDIO
TITLE "La califfa [La califfa]"
PERFORMER "Ennio Morricone"
ISRC 000000000000
FLAGS DCP
INDEX 01 08:47:46
TRACK 04 AUDIO
TITLE "Per qualche dollaro in piu' [Per qualche dollaro in piu']"
PERFORMER "Ennio Morricone"
ISRC 000000000000
FLAGS DCP
INDEX 01 11:30:23
TRACK 05 AUDIO
TITLE "Novecento [Romanzo]"
PERFORMER "Ennio Morricone"
ISRC 000000000000
FLAGS DCP
INDEX 01 14:22:64
TRACK 06 AUDIO
TITLE "Il gatto a nove code [Ninna nanna in blu']"
PERFORMER "Ennio Morricone"
ISRC 000000000000
FLAGS DCP
INDEX 01 18:33:20
TRACK 07 AUDIO
TITLE "Scusi, facciamo l'amore? [A Lydia]"
PERFORMER "Ennio Morricone"
ISRC 000000000000
FLAGS DCP
INDEX 01 21:15:12
TRACK 08 AUDIO
TITLE "Viaggio con Anita [Viaggio con Anita]"
PERFORMER "Ennio Morricone"
ISRC 000000000000
FLAGS DCP
INDEX 01 24:34:33
TRACK 09 AUDIO
TITLE "Gott mit uns [Lontano]"
PERFORMER "Ennio Morricone"
ISRC 000000000000
FLAGS DCP
INDEX 01 27:26:09
TRACK 10 AUDIO
TITLE "Tepepa [Viva la revolution]"
PERFORMER "Ennio Morricone"
ISRC 000000000000
FLAGS DCP
INDEX 01 31:56:37
TRACK 11 AUDIO
TITLE "L'uomo delle stelle [L'uomo delle stelle]"
PERFORMER "Ennio Morricone"
ISRC 000000000000
FLAGS DCP
INDEX 01 36:20:06
TRACK 12 AUDIO
TITLE "Il diavolo nel cervello [La ragione, il cuore, l'amore]"
PERFORMER "Ennio Morricone"
ISRC 000000000000
FLAGS DCP
INDEX 01 39:29:11
TRACK 13 AUDIO
TITLE "Il trio infernale [Il trio infernale]"
PERFORMER "Ennio Morricone"
ISRC 000000000000
FLAGS DCP
INDEX 01 43:00:71
TRACK 14 AUDIO
TITLE "The endless game [The endless game]"
PERFORMER "Ennio Morricone"
ISRC 000000000000
FLAGS DCP
INDEX 01 47:16:51
TRACK 15 AUDIO
TITLE "Faccia a faccia [Faccia a faccia]"
PERFORMER "Ennio Morricone"
ISRC 000000000000
FLAGS DCP
INDEX 01 51:09:24
TRACK 16 AUDIO
TITLE "Oceano [Oceano]"
PERFORMER "Ennio Morricone"
ISRC 000000000000
FLAGS DCP
INDEX 01 54:23:56

Отчёт EAC об извлечении, выполненном 26. сентября 2007, 18:26 для диска:
ENNIO MORRICONE / 50 MOVIE THEMES HITS CD2

Дисковод: Optiarc DVD RW AD-5170A Adapter: 1 ID: 1
Режим чтения: Достоверный (C2: нет, Точный поток: да, Отключение кэша: да)
Коррекция смещения при чтении: 48
Способность читать области Lead-in и Lead-out : Нет

Выходной формат: Внутренние WAV-операции
44.100 Гц; 16 бит; стерео

Другие параметры:
Заполнение пропущенных сэмплов тишиной : Да
Удаление блоков с тишиной в начале и конце : Нет
Установленный внешний ASPI-интерфейс

Характеристики диапазона извлечения и сообщения об ошибках
Выбранный диапазон
Имя файла M:\ENNIO MORRICONE - 50 MOVIE THEMES HITS CD2\ENNIO MORRICONE - 50 MOVIE THEMES HITS CD2.wav

Пиковый уровень 100.0 %
Качество диапазона 99.9 %
CRC 491EB0AF
Копирование... OK

Ошибок не произошло

Конец отчёта
REM GENRE "MOVIE THEMES"
REM DATE 2005
REM DISCID F30E5011
REM COMMENT "ExactAudioCopy v0.95b3"
PERFORMER "ENNIO MORRICONE"
TITLE "50 MOVIE THEMES HITS CD2"
FILE "ENNIO MORRICONE - 50 MOVIE THEMES HITS CD2.wav" WAVE
TRACK 01 AUDIO
TITLE "IL BUONO, IL BRUTTO, IL CATTIVO"
PERFORMER "ENNIO MORRICONE"
ISRC 000000000000
FLAGS DCP
INDEX 01 00:00:00
TRACK 02 AUDIO
TITLE "C'ERA UNA VOLTA IL WEST"
PERFORMER "ENNIO MORRICONE"
ISRC 000000000000
FLAGS DCP
INDEX 01 02:46:13
TRACK 03 AUDIO
TITLE "INDAGINE SU UN CITTADINO AL DI SOPRA DI OGNI SOSPETTO"
PERFORMER "ENNIO MORRICONE"
ISRC 000000000000
FLAGS DCP
INDEX 01 05:55:50
TRACK 04 AUDIO
TITLE "IL DESERTO DEI TARTARI"
PERFORMER "ENNIO MORRICONE"
ISRC 000000000000
FLAGS DCP
INDEX 01 09:26:50
TRACK 05 AUDIO
TITLE "LA VENEXIANA"
PERFORMER "ENNIO MORRICONE"
ISRC 000000000000
FLAGS DCP
INDEX 01 13:41:13
TRACK 06 AUDIO
TITLE "VERUSCHKA"
PERFORMER "ENNIO MORRICONE"
ISRC 000000000000
FLAGS DCP
INDEX 01 15:48:00
TRACK 07 AUDIO
TITLE "DIMENTICARE PALERMO"
PERFORMER "ENNIO MORRICONE"
ISRC 000000000000
FLAGS DCP
INDEX 01 18:48:52
TRACK 08 AUDIO
TITLE "QUESTA SPECIE D'AMORE"
PERFORMER "ENNIO MORRICONE"
ISRC 000000000000
FLAGS DCP
INDEX 01 23:13:20
TRACK 09 AUDIO
TITLE "VAMOS A MATAR COMPANEROS"
PERFORMER "ENNIO MORRICONE"
ISRC 000000000000
FLAGS DCP
INDEX 01 25:51:33
TRACK 10 AUDIO
TITLE "IL SEGRETO"
PERFORMER "ENNIO MORRICONE"
ISRC 000000000000
FLAGS DCP
INDEX 01 28:18:29
TRACK 11 AUDIO
TITLE "L'ALIBI"
PERFORMER "ENNIO MORRICONE"
ISRC 000000000000
FLAGS DCP
INDEX 01 31:55:16
TRACK 12 AUDIO
TITLE "LA CUGINA"
PERFORMER "ENNIO MORRICONE"
ISRC 000000000000
FLAGS DCP
INDEX 01 34:50:38
TRACK 13 AUDIO
TITLE "IL MERCENARIO"
PERFORMER "ENNIO MORRICONE"
ISRC 000000000000
FLAGS DCP
INDEX 01 39:05:51
TRACK 14 AUDIO
TITLE "L'UCCELLO DALLE PIUME DI CRISTALLO"
PERFORMER "ENNIO MORRICONE"
ISRC 000000000000
FLAGS DCP
INDEX 01 43:52:34
TRACK 15 AUDIO
TITLE "LA SCOPERTA DELL'AMERICA"
PERFORMER "ENNIO MORRICONE"
ISRC 000000000000
FLAGS DCP
INDEX 01 49:07:54
TRACK 16 AUDIO
TITLE "MOSCA ADDIO"
PERFORMER "ENNIO MORRICONE"
ISRC 000000000000
FLAGS DCP
INDEX 01 52:43:10
TRACK 17 AUDIO
TITLE "MADDALENA"
PERFORMER "ENNIO MORRICONE"
ISRC 000000000000
FLAGS DCP
INDEX 01 57:35:23

Отчёт EAC об извлечении, выполненном 26. сентября 2007, 2:28 для диска:
ENNIO MORRICONE / 50 MOVIE THEMES CD3

Дисковод: Optiarc DVD RW AD-5170A Adapter: 1 ID: 1
Режим чтения: Достоверный (C2: нет, Точный поток: да, Отключение кэша: да)
Коррекция смещения при чтении: 48
Способность читать области Lead-in и Lead-out : Нет

Выходной формат: Внутренние WAV-операции
44.100 Гц; 16 бит; стерео

Другие параметры:
Заполнение пропущенных сэмплов тишиной : Да
Удаление блоков с тишиной в начале и конце : Нет
Установленный внешний ASPI-интерфейс

Характеристики диапазона извлечения и сообщения об ошибках
Выбранный диапазон
Имя файла M:\ENNIO MORRICONE - 50 MOVIE THEMES CD3\ENNIO MORRICONE - 50 MOVIE THEMES CD3.wav

Пиковый уровень 99.6 %
Качество диапазона 100.0 %
CRC 513BBE8E
Копирование... OK

Ошибок не произошло

Конец отчёта
REM GENRE "MOVIE THEMES"
REM DATE 2005
REM DISCID E60E2811
REM COMMENT "ExactAudioCopy v0.95b3"
PERFORMER "ENNIO MORRICONE"
TITLE "50 MOVIE THEMES CD3"
FILE "ENNIO MORRICONE - 50 MOVIE THEMES CD3.wav" WAVE
TRACK 01 AUDIO
TITLE "NUOVO CINEMA PARADISO"
PERFORMER "ENNIO MORRICONE"
ISRC 000000000000
FLAGS DCP
INDEX 01 00:00:00
TRACK 02 AUDIO
TITLE "IL GIRO DEL MONDO DEGLI INNAMORATI DIPEYNET"
PERFORMER "ENNIO MORRICONE"
ISRC 000000000000
FLAGS DCP
INDEX 01 02:34:00
TRACK 03 AUDIO
TITLE "IL MIO NOME E' NESSUNO"
PERFORMER "ENNIO MORRICONE"
ISRC 000000000000
FLAGS DCP
INDEX 01 07:30:16
TRACK 04 AUDIO
TITLE "QUEIMADA"
PERFORMER "ENNIO MORRICONE"
ISRC 000000000000
FLAGS DCP
INDEX 01 10:44:23
TRACK 05 AUDIO
TITLE "LA DONNA INVISIBILE"
PERFORMER "ENNIO MORRICONE"
ISRC 000000000000
FLAGS DCP
INDEX 01 15:53:52
TRACK 06 AUDIO
TITLE "IL PRINCIPE DEL DESERTO"
PERFORMER "ENNIO MORRICONE"
ISRC 000000000000
FLAGS DCP
INDEX 01 21:20:02
TRACK 07 AUDIO
TITLE "TRE COLONNE IN CRONACA"
PERFORMER "ENNIO MORRICONE"
ISRC 000000000000
FLAGS DCP
INDEX 01 25:10:44
TRACK 08 AUDIO
TITLE "QUATTRO MOSCHE DI VELLUTO GRIGIO"
PERFORMER "ENNIO MORRICONE"
ISRC 000000000000
FLAGS DCP
INDEX 01 28:32:36
TRACK 09 AUDIO
TITLE "MATRIMONIO COL VIZIETTO"
PERFORMER "ENNIO MORRICONE"
ISRC 000000000000
FLAGS DCP
INDEX 01 32:13:54
TRACK 10 AUDIO
TITLE "I CRUDELE"
PERFORMER "ENNIO MORRICONE"
ISRC 000000000000
FLAGS DCP
INDEX 01 35:36:07
TRACK 11 AUDIO
TITLE "LE DUE STAGIONI DELLA VITA"
PERFORMER "ENNIO MORRICONE"
ISRC 000000000000
FLAGS DCP
INDEX 01 38:16:50
TRACK 12 AUDIO
TITLE "INVITO ALLO SPORT"
PERFORMER "ENNIO MORRICONE"
ISRC 000000000000
FLAGS DCP
INDEX 01 42:01:52
TRACK 13 AUDIO
TITLE "GLI INTOCCABILI"
PERFORMER "ENNIO MORRICONE"
ISRC 000000000000
FLAGS DCP
INDEX 01 45:48:64
TRACK 14 AUDIO
TITLE "CORLEONE"
PERFORMER "ENNIO MORRICONE"
ISRC 000000000000
FLAGS DCP
INDEX 01 48:02:27
TRACK 15 AUDIO
TITLE "D'AMORE SI MUORE"
PERFORMER "ENNIO MORRICONE"
ISRC 000000000000
FLAGS DCP
INDEX 01 51:49:26
TRACK 16 AUDIO
TITLE "UN'ESERCITO DI 5 UOMINI"
PERFORMER "ENNIO MORRICONE"
ISRC 000000000000
FLAGS DCP
INDEX 01 55:41:11
TRACK 17 AUDIO
TITLE "LA RAGAZZA E IL GENERALE"
PERFORMER "ENNIO MORRICONE"
ISRC 000000000000
FLAGS DCP
INDEX 01 58:43:59


Трекер:  [ 07-Июл-2011 23:28 ]

  

Скачать .torrent

Размер .torrent файла 19 KB


Размер: 895 MB
Хэш (hash) релиза: 3edbe3059689466cf7144a403bbcfdde5c874c37

Торренты, похожие на Ennio Morricone - Gold Edition - 50 Movie Themes Hits скачать торрент

Форум Название Автор Размер S L Добавлен
Саундтреки к фильмам и мультфильмам (mp3) ·· (Soundtrack) Ennio Morricone - 50 Movie Theme Hits - Gold Edition (3 CD) - 2005, MP3 (tracks), CBR 320Kbps AqvaGen 442181422422 MB 0 0 1292266411

21:53

13-Дек-10

Еще никто не оставлял запись к записи скачать торрент Ennio Morricone - Gold Edition - 50 Movie Themes Hits . Будь первым!

!Обратная связь