Скачать через торрент музыку Jonny Greenwood - Bodysong бесплатно без регистрации torrent

Статистика раздачи
Размер:  237 MB   |    Зарегистрирован:  7 лет 1 месяц   |    .torrent скачан:  44 раза   |   
Раздают:  1  
   
загрузка...
 
Автор Сообщение

Galfimbul

avatar Galfimbul


Jonny Greenwood - Bodysong

Жанр: Experimental, Soundtrack
Год выпуска диска: 2004
Производитель диска: US
Аудио кодек: FLAC
Тип рипа: tracks+.cue
Битрейт аудио: lossless
Продолжительность: 44:35

Трэклист:
1. Moon Trills 5:17
2. Moon Mall 1:12
3. Trench 2:38
4. Iron Swallow 2:09
Performer - The Emperor String Quartet
5. Clockwork Tin Soldiers 3:49
6. Convergence 4:26
7. Nudnik Headache 2:16
8. Peartree 3:06
9. Splitter 3:57
Bass - Jeremy Brown
Drums - Gene Calderazzo
Saxophone - Julian Argvelles
Trumpet - Gerald Presencer
10. Bode Radio/Glass Light/Broken Hearts 4:36
Performer - The Emperor String Quartet
11. 24 Hour Charleston 2:39
Bass [Electric], Programmed By [Additional] - Colin Greenwood
12. Milky Drops From Heaven 4:44
Bass - Jeremy Brown
Drums - Gene Calderazzo
Saxophone - Julian Argvelles
Trumpet - Gerald Presencer
13. Tehellet 3:40
Performer - The Emperor String Quartet
 
X Lossless Decoder version 20080926 (93.3)

XLD extraction logfile from 2008-12-29 17:47:09 -0700

Jonny Greenwood / Bodysong

Used drive : MATSHITA DVD-R UJ-857 (revision 4A0E)

Use cdparanoia mode : YES (CDParanoia III 10.2 engine)Disable audio cache : OK for the drive with cache less than 2750KBMake use of C2 pointers : NORead offset correction : 102Max retry count : 100

TOC of the extracted CD Track | Start | Length | Start sector | End sector --------------------------------------------------------- 1 | 00:00:00 | 05:17:11 | 0 | 23785 2 | 05:17:11 | 01:12:39 | 23786 | 29224 3 | 06:29:50 | 02:38:30 | 29225 | 41104 4 | 09:08:05 | 02:09:47 | 41105 | 50826 5 | 11:17:52 | 03:49:26 | 50827 | 68027 6 | 15:07:03 | 04:26:56 | 68028 | 88033 7 | 19:33:59 | 02:16:32 | 88034 | 98265 8 | 21:50:16 | 03:06:57 | 98266 | 112272 9 | 24:56:73 | 03:57:07 | 112273 | 130054 10 | 28:54:05 | 04:36:26 | 130055 | 150780 11 | 33:30:31 | 02:39:06 | 150781 | 162711 12 | 36:09:37 | 04:44:50 | 162712 | 184061 13 | 40:54:12 | 03:40:57 | 184062 | 200618 14 | 47:06:69 | 13:20:29 | 212019 | 272047

Track 01 Filename : /Volumes/Terabyte/CD rips/Greenwood, Jonny/Bodysong/01 - Moon Trills.flac

CRC32 hash (test run) : 80B2219F CRC32 hash : 80B2219F CRC32 hash (skip zero) : 33E5505E AccurateRip signature : 9FB4B437 ->Track not present in AccurateRip database. Statistics Read error : 0 Skipped (treated as error) : 0 Edge jitter error (maybe fixed) : 0 Atom jitter error (maybe fixed) : 0 Drift error (maybe fixed) : 0 Dropped bytes error (maybe fixed) : 0 Duplicated bytes error (maybe fixed) : 0 Inconsistency in error sectors : 0

Track 02 Filename : /Volumes/Terabyte/CD rips/Greenwood, Jonny/Bodysong/02 - Moon Mall.flac

CRC32 hash (test run) : 0B093FD4 CRC32 hash : 0B093FD4 CRC32 hash (skip zero) : 3307DE29 AccurateRip signature : CAFE5D51 ->Track not present in AccurateRip database. Statistics Read error : 0 Skipped (treated as error) : 0 Edge jitter error (maybe fixed) : 0 Atom jitter error (maybe fixed) : 0 Drift error (maybe fixed) : 0 Dropped bytes error (maybe fixed) : 0 Duplicated bytes error (maybe fixed) : 0 Inconsistency in error sectors : 0

Track 03 Filename : /Volumes/Terabyte/CD rips/Greenwood, Jonny/Bodysong/03 - Trench.flac

CRC32 hash (test run) : 7B52BC87 CRC32 hash : 7B52BC87 CRC32 hash (skip zero) : D83D3AC0 AccurateRip signature : 9502B69D ->Track not present in AccurateRip database. Statistics Read error : 0 Skipped (treated as error) : 0 Edge jitter error (maybe fixed) : 0 Atom jitter error (maybe fixed) : 0 Drift error (maybe fixed) : 0 Dropped bytes error (maybe fixed) : 0 Duplicated bytes error (maybe fixed) : 0 Inconsistency in error sectors : 0

Track 04 Filename : /Volumes/Terabyte/CD rips/Greenwood, Jonny/Bodysong/04 - Iron Swallow.flac

CRC32 hash (test run) : 4DC36EFA CRC32 hash : 4DC36EFA CRC32 hash (skip zero) : 39AF293F AccurateRip signature : 9CAE82AD ->Track not present in AccurateRip database. Statistics Read error : 0 Skipped (treated as error) : 0 Edge jitter error (maybe fixed) : 0 Atom jitter error (maybe fixed) : 0 Drift error (maybe fixed) : 0 Dropped bytes error (maybe fixed) : 0 Duplicated bytes error (maybe fixed) : 0 Inconsistency in error sectors : 0

Track 05 Filename : /Volumes/Terabyte/CD rips/Greenwood, Jonny/Bodysong/05 - Clockwork Tin Soldiers.flac

CRC32 hash (test run) : 4A230863 CRC32 hash : 4A230863 CRC32 hash (skip zero) : 3B62A73E AccurateRip signature : 1983E6EB ->Track not present in AccurateRip database. Statistics Read error : 0 Skipped (treated as error) : 0 Edge jitter error (maybe fixed) : 0 Atom jitter error (maybe fixed) : 0 Drift error (maybe fixed) : 0 Dropped bytes error (maybe fixed) : 0 Duplicated bytes error (maybe fixed) : 0 Inconsistency in error sectors : 0

Track 06 Filename : /Volumes/Terabyte/CD rips/Greenwood, Jonny/Bodysong/06 - Convergence.flac

CRC32 hash (test run) : 27CEE263 CRC32 hash : 27CEE263 CRC32 hash (skip zero) : 2328BE31 AccurateRip signature : 46EB28F7 ->Track not present in AccurateRip database. Statistics Read error : 0 Skipped (treated as error) : 0 Edge jitter error (maybe fixed) : 0 Atom jitter error (maybe fixed) : 0 Drift error (maybe fixed) : 0 Dropped bytes error (maybe fixed) : 0 Duplicated bytes error (maybe fixed) : 0 Inconsistency in error sectors : 0

Track 07 Filename : /Volumes/Terabyte/CD rips/Greenwood, Jonny/Bodysong/07 - Nudnik Headache.flac

CRC32 hash (test run) : 6EA8A714 CRC32 hash : 6EA8A714 CRC32 hash (skip zero) : 2DE29E0E AccurateRip signature : B67278FB ->Track not present in AccurateRip database. Statistics Read error : 0 Skipped (treated as error) : 0 Edge jitter error (maybe fixed) : 0 Atom jitter error (maybe fixed) : 0 Drift error (maybe fixed) : 0 Dropped bytes error (maybe fixed) : 0 Duplicated bytes error (maybe fixed) : 0 Inconsistency in error sectors : 0

Track 08 Filename : /Volumes/Terabyte/CD rips/Greenwood, Jonny/Bodysong/08 - Peartree.flac

CRC32 hash (test run) : FD0E200F CRC32 hash : FD0E200F CRC32 hash (skip zero) : 46F673C1 AccurateRip signature : 5513BE17 ->Track not present in AccurateRip database. Statistics Read error : 0 Skipped (treated as error) : 0 Edge jitter error (maybe fixed) : 0 Atom jitter error (maybe fixed) : 0 Drift error (maybe fixed) : 0 Dropped bytes error (maybe fixed) : 0 Duplicated bytes error (maybe fixed) : 0 Inconsistency in error sectors : 0

Track 09 Filename : /Volumes/Terabyte/CD rips/Greenwood, Jonny/Bodysong/09 - Splitter.flac

CRC32 hash (test run) : 1C9F5720 CRC32 hash : 1C9F5720 CRC32 hash (skip zero) : EE597EF0 AccurateRip signature : 6657A99E ->Track not present in AccurateRip database. Statistics Read error : 0 Skipped (treated as error) : 0 Edge jitter error (maybe fixed) : 1 Atom jitter error (maybe fixed) : 0 Drift error (maybe fixed) : 0 Dropped bytes error (maybe fixed) : 0 Duplicated bytes error (maybe fixed) : 0 Inconsistency in error sectors : 0

Track 10 Filename : /Volumes/Terabyte/CD rips/Greenwood, Jonny/Bodysong/10 - Bode Radio�Glass Light�Broken Hearts.flac

CRC32 hash (test run) : 13CD3E46 CRC32 hash : 13CD3E46 CRC32 hash (skip zero) : CECDAA50 AccurateRip signature : 4A39BE3E ->Track not present in AccurateRip database. Statistics Read error : 0 Skipped (treated as error) : 0 Edge jitter error (maybe fixed) : 1 Atom jitter error (maybe fixed) : 1 Drift error (maybe fixed) : 0 Dropped bytes error (maybe fixed) : 0 Duplicated bytes error (maybe fixed) : 0 Inconsistency in error sectors : 0

Track 11 Filename : /Volumes/Terabyte/CD rips/Greenwood, Jonny/Bodysong/11 - 24 Hour Charleston.flac

CRC32 hash (test run) : A39729CF CRC32 hash : A39729CF CRC32 hash (skip zero) : 5ED9CD18 AccurateRip signature : 57C5FAF6 ->Track not present in AccurateRip database. Statistics Read error : 0 Skipped (treated as error) : 0 Edge jitter error (maybe fixed) : 0 Atom jitter error (maybe fixed) : 0 Drift error (maybe fixed) : 0 Dropped bytes error (maybe fixed) : 0 Duplicated bytes error (maybe fixed) : 0 Inconsistency in error sectors : 0

Track 12 Filename : /Volumes/Terabyte/CD rips/Greenwood, Jonny/Bodysong/12 - Milky Drops from Heaven.flac

CRC32 hash (test run) : C936A8A0 CRC32 hash : C936A8A0 CRC32 hash (skip zero) : 85AF629D AccurateRip signature : ABD2D4EA ->Track not present in AccurateRip database. Statistics Read error : 0 Skipped (treated as error) : 0 Edge jitter error (maybe fixed) : 0 Atom jitter error (maybe fixed) : 0 Drift error (maybe fixed) : 0 Dropped bytes error (maybe fixed) : 0 Duplicated bytes error (maybe fixed) : 0 Inconsistency in error sectors : 0

Track 13 Filename : /Volumes/Terabyte/CD rips/Greenwood, Jonny/Bodysong/13 - Tehellet.flac

CRC32 hash (test run) : 5EF9C12D CRC32 hash : 5EF9C12D CRC32 hash (skip zero) : 36733FF1 AccurateRip signature : F9530B73 ->Track not present in AccurateRip database. Statistics Read error : 0 Skipped (treated as error) : 0 Edge jitter error (maybe fixed) : 0 Atom jitter error (maybe fixed) : 0 Drift error (maybe fixed) : 0 Dropped bytes error (maybe fixed) : 0 Duplicated bytes error (maybe fixed) : 0 Inconsistency in error sectors : 0

No errors occurred

End of status report


Трекер:  [ 07-Июл-2011 23:28 ]

  

Скачать .torrent

Размер .torrent файла 20 KB


Размер: 237 MB
Хэш (hash) релиза: b1014b7315050e99c5463ffe33b2b4503aa087e1

Еще никто не оставлял запись к записи скачать торрент Jonny Greenwood - Bodysong . Будь первым!

!Обратная связь