Скачать через торрент музыку Baraka Барака бесплатно без регистрации torrent

Статистика раздачи
Размер:  205 MB   |    Зарегистрирован:  7 лет 4 месяца   |    .torrent скачан:  36 раз   |   
Раздают:  1  
   
загрузка...
 
Автор Сообщение

Galfimbul

avatar Galfimbul


Baraka / Барака (Music From The Original Motion Picture Soundtrack)
Композитор: Michael Stearns
Жанр: Soundtrack
Год выпуска диска: 1992
Аудио кодек: APE
Тип рипа: image+.cue
Битрейт аудио: lossless
Продолжительность: 47:58

Трэклист:
1 Somei Satoh ~ Mantra (4:45)
2 Gonzalo Vargas ~ Wipala (5:07)
3 Dead Can Dance ~ The Host Of Seraphim (6:20)
4 Michael Stearns ~ Village Dance (2:58)
5 L. Subramaniam ~ Wandering Saint (6:43)
6 Anugama & Sebastiano ~ African Journey (3:37)
7 David Hykes ~ Rainbow Voice (3:00)
8 Michael Stearns ~ Monk With Bell (2:37)
9 Michael Stearns ~ Broken Vows (4:42)
10 Michael Stearns ~ Finale (4:36)
11 Michael Stearns ~ End Credits (3:26)


Доп. информация:
 
Exact Audio Copy V0.99 prebeta 4 from 23. January 2008

EAC extraction logfile from 30. November 2008, 17:03

Michael Stearns / Baraka

Used drive : ASUS DRW-1814BLT Adapter: 3 ID: 0

Read mode : SecureUtilize accurate stream : YesDefeat audio cache : YesMake use of C2 pointers : No

Read offset correction : 6Overread into Lead-In and Lead-Out : NoFill up missing offset samples with silence : YesDelete leading and trailing silent blocks : NoNull samples used in CRC calculations : YesUsed interface : Native Win32 interface for Win NT & 2000

Used output format : Monkey's Audio Lossless Encoder v3.99 DLLSample format : Normal Lossless Compression

TOC of the extracted CD

Track | Start | Length | Start sector | End sector --------------------------------------------------------- 1 | 0:00.37 | 4:45.65 | 37 | 21476 2 | 4:46.27 | 5:07.18 | 21477 | 44519 3 | 9:53.45 | 6:20.35 | 44520 | 73054 4 | 16:14.05 | 2:58.57 | 73055 | 86461 5 | 19:12.62 | 6:43.45 | 86462 | 116731 6 | 25:56.32 | 3:37.68 | 116732 | 133074 7 | 29:34.25 | 3:00.62 | 133075 | 146636 8 | 32:35.12 | 2:37.03 | 146637 | 158414 9 | 35:12.15 | 4:42.35 | 158415 | 179599 10 | 39:54.50 | 4:36.65 | 179600 | 200364 11 | 44:31.40 | 3:26.72 | 200365 | 215886

Range status and errors

Selected range

Filename G:\!!!!!!!!MINE\ъйчйд згщд\Michael Stearns - Baraka\Michael Stearns - Baraka.ape

Peak level 93.2 % Range quality 100.0 % Copy CRC 6478E230 Copy OK

No errors occurred

AccurateRip summary

Track 1 accurately ripped (confidence 6) [AB30455B]Track 2 accurately ripped (confidence 6) [81B34DD3]Track 3 accurately ripped (confidence 5) [7DE9F544]Track 4 accurately ripped (confidence 6) [065EFE7B]Track 5 accurately ripped (confidence 5) [7B3FFB89]Track 6 accurately ripped (confidence 6) [D4F98B21]Track 7 accurately ripped (confidence 5) [EB57040E]Track 8 accurately ripped (confidence 6) [A48DEF42]Track 9 accurately ripped (confidence 6) [142E6441]Track 10 accurately ripped (confidence 6) [1D3F4EEA]Track 11 accurately ripped (confidence 6) [0E47C4B6]

All tracks accurately ripped

End of status report
Источник: ослосеть (HQShare.net)

Трекер:  [ 07-Июл-2011 23:28 ]

  

Скачать .torrent

Размер .torrent файла 17 KB


Размер: 205 MB
Хэш (hash) релиза: fa007f7069942897c1d027c20775d5490bf12711

Торренты, похожие на Baraka Барака скачать торрент

Форум Название Автор Размер S L Добавлен
Саундтреки к фильмам и мультфильмам (mp3) ·· (Soundtrack) Baraka / Барака (Michael Stearns & VA) - 1992, MP3 (tracks), 320 kbps Galfimbul 115978914111 MB 0 0 1292265876

21:44

13-Дек-10

Еще никто не оставлял запись к записи скачать торрент Baraka Барака . Будь первым!

!Обратная связь