Скачать через торрент музыку VA - Музыка экрана бесплатно без регистрации torrent

Статистика раздачи
Размер:  1005 MB   |    Зарегистрирован:  6 лет 9 месяцев   |    .torrent скачан:  43 раза   |   
Раздают:  1  
   
загрузка...
 
Автор Сообщение

Galfimbul

avatar Galfimbul


Various Artists -Музыка экрана

Жанр: Soundtrack
Год выпуска диска: 2008
Производитель диска: Россия "Ридерз Дайджест"
Аудио кодек: APE
Тип рипа: (image + .cue)
Битрейт аудио: lossless
Продолжительность: 03:08:39
01. [Mancini, H. & Orchestra] The Entertainer
02. [Keating, D. & Orchestra] Mrs. Robinson
03. [Keating, D. & Orchestra] Mrs. Robinson
04. [Whitaker, D. & Orchestra] Bonny & Clyde - Theme
05. [Muchano, M. & London Cinema Orchestra] Deer Hunter - Cavatina
06. [Manchini, H. & Orchestra] Love Story - Theme
07. [Bellemonde, P. & London Cinema Orchestra] Bright Eyes
08. [Dulton, L. & Orchestra] Godfather - Waltz
09. [Manchini, H. & Orchestra] Way We Were - Theme
10. [Morricone, E. & Orchestra] Giu la testa
11. [Slovac Philharmonic Orchestra] For a Few Dollars More
12. [London Cinema Orchestra] Dr. No - Theme
13. [Barry, J. & Orchestra] From Russia With Love
14. [London Symphonic Orchestra] Star Wars - Theme
15. [Slovac Philharmonic Orchestra] Shaft
16. [Lavender Hill Orchectra] Tubular Bells
17. [Pearson, J. & Orchestra] Emmanuelle-2
18. [Hammerstein, E. & Orchestra] On the Street Where You Live
19. [New York Pops Ochestra] The Sound of Music
20. [London Promenade Orchestra] Tonight-America
Exact Audio Copy V0.99 prebeta 5 from 4. May 2009

Отчёт EAC об извлечении, выполненном 8. декабря 2009, 5:26

Various / Музыка Экрана - Незабываемые 60 - 70-е

Дисковод: TSSTcorpCDDVDW SH-S223L Adapter: 2 ID: 1

Режим чтения : Достоверность
Использование точного потока : Да
Отключение кэша аудио : Да
Использование указателей C2 : Нет

Коррекция смещения при чтении : 6
Способность читать области Lead-in и Lead-out : Да
Заполнение пропущенных сэмплов тишиной : Да
Удаление блоков с тишиной в начале и конце : Нет
При вычислениях CRC использовались нулевые сэмплы : Да
Интерфейс : Встроенный Win32-интерфейс для Win NT/2000

Выходной формат : Внутренние WAV-операции
Формат сэмплов : 44.100 Гц; 16 бит; стерео

TOC извлечённого CD

Трек | Старт | Длительность | Начальный сектор | Конечный сектор
---------------------------------------------------------------------
1 | 0:00.00 | 3:34.12 | 0 | 16061
2 | 3:34.12 | 2:39.04 | 16062 | 27990
3 | 6:13.16 | 3:10.58 | 27991 | 42298
4 | 9:23.74 | 2:24.61 | 42299 | 53159
5 | 11:48.60 | 4:47.12 | 53160 | 74696
6 | 16:35.72 | 2:52.01 | 74697 | 87597
7 | 19:27.73 | 2:55.50 | 87598 | 100772
8 | 22:23.48 | 4:29.22 | 100773 | 120969
9 | 26:52.70 | 3:51.38 | 120970 | 138332
10 | 30:44.33 | 4:18.07 | 138333 | 157689
11 | 35:02.40 | 3:56.45 | 157690 | 175434
12 | 38:59.10 | 2:38.24 | 175435 | 187308
13 | 41:37.34 | 1:54.26 | 187309 | 195884
14 | 43:31.60 | 5:33.61 | 195885 | 220920
15 | 49:05.46 | 3:06.63 | 220921 | 234933
16 | 52:12.34 | 4:33.11 | 234934 | 255419
17 | 56:45.45 | 3:27.60 | 255420 | 271004
18 | 60:13.30 | 3:46.04 | 271005 | 287958
19 | 63:59.34 | 3:41.30 | 287959 | 304563
20 | 67:40.64 | 3:21.14 | 304564 | 319652

Характеристики диапазона извлечения и сообщения об ошибках

Выбранный диапазон

Имя файла D:\Игорёче-че-к\Релизы\Музыка Экрана\Незабываемые 60 - 70-е\Various - Музыка Экрана - Незабываемые 60 - 70-е.wav

Пиковый уровень 100.0 %
Качество диапазона 99.9 %
CRC копии 074A7D9B
Копирование... OK

Ошибок не произошло

Конец отчёта
Started at: вторник, 08. 12. 2009. - 5:58.22
1 file found

1 -===- D:\Игорёче-че-к\Релизы\Музыка Экрана\Незабываемые 60 - 70-е\Various - Музыка Экрана - Незабываемые 60 - 70-е.wav
Conclusion: this track is CDDA with probability 100%

Finished at: вторник, 08. 12. 2009. - 6:20.27 (operation time: 0:22.04)
01. [Scott, W. & Orchestra] Dr. Zhivago - Lara Theme
02. [Mancini, H. & Orchestra] Moon River
03. [Price, R. & Orchestra] Un homme et une femme
04. [Hope, P. & Orchestra] This Is My Song
05. [Langford, G. & Orchestra] Born Free
06. [Metropolitan Studio Orchestra] Secret Love
07. [Riddle, N. & Orchestra] The Look of Love
08. [Bateman, P. & Orchestra] I Don't Know How to Love Him
09. [Romatic Strings Orchestra] People
10. [Gregory, D. & Orchestra] Don't Cry for Me, Argentina
11. [Ingman, N. & Orchestra] Can You Read My Mind
12. [Ingman, N. & Orchestra] Godfather - Love Theme
13. [Keating, D. & Orchestra] The Windmills of Your Mind
14. [London Symphonic Orchestra] Schindler's List - Theme
15. [Romantic Strings Orchestra] Unchained Melody
16. [Goya, F. & Orchestra] Have You Ever Really Loved a Woman
17. [Firman, D. & Orchestra] I Will Always Love You
18. [London Cinema Orchestra] I Just Called to Say I Love You
19. [Gregory, D. & Orchestra] Endless Love - Theme
20. [Landford, G. & Orchestra] Can You Feel the Love Tonight
Exact Audio Copy V0.99 prebeta 5 from 4. May 2009

Отчёт EAC об извлечении, выполненном 8. декабря 2009, 5:39

Various / Музыка Экрана - Мелодии любви

Дисковод: TSSTcorpCDDVDW SH-S223L Adapter: 2 ID: 1

Режим чтения : Достоверность
Использование точного потока : Да
Отключение кэша аудио : Да
Использование указателей C2 : Нет

Коррекция смещения при чтении : 6
Способность читать области Lead-in и Lead-out : Да
Заполнение пропущенных сэмплов тишиной : Да
Удаление блоков с тишиной в начале и конце : Нет
При вычислениях CRC использовались нулевые сэмплы : Да
Интерфейс : Встроенный Win32-интерфейс для Win NT/2000

Выходной формат : Внутренние WAV-операции
Формат сэмплов : 44.100 Гц; 16 бит; стерео

TOC извлечённого CD

Трек | Старт | Длительность | Начальный сектор | Конечный сектор
---------------------------------------------------------------------
1 | 0:00.00 | 2:43.37 | 0 | 12261
2 | 2:43.37 | 2:19.70 | 12262 | 22756
3 | 5:03.32 | 1:59.09 | 22757 | 31690
4 | 7:02.41 | 4:04.54 | 31691 | 50044
5 | 11:07.20 | 3:10.04 | 50045 | 64298
6 | 14:17.24 | 4:06.30 | 64299 | 82778
7 | 18:23.54 | 2:41.32 | 82779 | 94885
8 | 21:05.11 | 3:57.12 | 94886 | 112672
9 | 25:02.23 | 5:01.17 | 112673 | 135264
10 | 30:03.40 | 4:03.45 | 135265 | 153534
11 | 34:07.10 | 2:49.02 | 153535 | 166211
12 | 36:56.12 | 3:12.09 | 166212 | 180620
13 | 40:08.21 | 2:24.11 | 180621 | 191431
14 | 42:32.32 | 4:05.32 | 191432 | 209838
15 | 46:37.64 | 3:52.29 | 209839 | 227267
16 | 50:30.18 | 3:38.42 | 227268 | 243659
17 | 54:08.60 | 3:39.04 | 243660 | 260088
18 | 57:47.64 | 3:01.16 | 260089 | 273679
19 | 60:49.05 | 3:22.20 | 273680 | 288849
20 | 64:11.25 | 3:30.14 | 288850 | 304613

Характеристики диапазона извлечения и сообщения об ошибках

Выбранный диапазон

Имя файла D:\Игорёче-че-к\Релизы\Музыка Экрана\Мелодии любви\Various - Музыка Экрана - Мелодии любви.wav

Пиковый уровень 99.6 %
Качество диапазона 100.0 %
CRC копии 6548C1C1
Копирование... OK

Ошибок не произошло

Конец отчёта
Started at: вторник, 08. 12. 2009. - 6:25.03
1 file found

1 -===- D:\Игорёче-че-к\Релизы\Музыка Экрана\Мелодии любви\Various - Музыка Экрана - Мелодии любви.wav
Conclusion: this track is CDDA with probability 100%

Finished at: вторник, 08. 12. 2009. - 6:48.14 (operation time: 0:23.10)
01. Тема Тары из к/ф «Унесенные ветром»
02. Тема Гарри Лайма из к/ф «Третий человек»
03. Тема из к/ф «Дорога»
04. Тема из к/ф «Запрещенные игры»
05. Singing in the Rain, из к/ф «Поющие под»дождем»
06. Do Not Forsake Me, из к/ф «Ровно в полдень»
07. «Великолепная семерка»
08. «Хороший, плохой, злой»
09. Тема из к/ф «Шарада»
10. «Бен Гур»
11. «Пушки Навароне»
12. Марш полковника Боги из к/ф «Мост через реку Квай
13. Марш и тема любви из к/ф «В поисках пропавшего Ковчега
14. Flying, из к/ф «Инопланетянин»
15. Баллада из к/ф «Беспечный ездок»
16. I Will Wait for You, из к/ф «Шербурские зонтики»
17. Over the Rainbow, из к/ф «Волшебник из страны ОЗ
18. Some Day my Prince Will Come, из м/ф «Белоснежка и семь гномов»
19. As Time Goes by, из к/ф «Касабланка»
20. My Heart Will Go on, из к/ф «Титаник»
Exact Audio Copy V0.99 prebeta 5 from 4. May 2009

Отчёт EAC об извлечении, выполненном 8. декабря 2009, 5:52

Various / Музыка Экрана - Шедевры кинематографа

Дисковод: TSSTcorpCDDVDW SH-S223L Adapter: 2 ID: 1

Режим чтения : Достоверность
Использование точного потока : Да
Отключение кэша аудио : Да
Использование указателей C2 : Нет

Коррекция смещения при чтении : 6
Способность читать области Lead-in и Lead-out : Да
Заполнение пропущенных сэмплов тишиной : Да
Удаление блоков с тишиной в начале и конце : Нет
При вычислениях CRC использовались нулевые сэмплы : Да
Интерфейс : Встроенный Win32-интерфейс для Win NT/2000

Выходной формат : Внутренние WAV-операции
Формат сэмплов : 44.100 Гц; 16 бит; стерео

TOC извлечённого CD

Трек | Старт | Длительность | Начальный сектор | Конечный сектор
---------------------------------------------------------------------
1 | 0:00.00 | 3:47.37 | 0 | 17061
2 | 3:47.37 | 4:31.08 | 17062 | 37394
3 | 8:18.45 | 3:36.25 | 37395 | 53619
4 | 11:54.70 | 1:31.21 | 53620 | 60465
5 | 13:26.16 | 3:11.29 | 60466 | 74819
6 | 16:37.45 | 2:48.65 | 74820 | 87484
7 | 19:26.35 | 3:08.36 | 87485 | 101620
8 | 22:34.71 | 2:58.26 | 101621 | 114996
9 | 25:33.22 | 3:00.30 | 114997 | 128526
10 | 28:33.52 | 3:39.61 | 128527 | 145012
11 | 32:13.38 | 2:23.29 | 145013 | 155766
12 | 34:36.67 | 3:19.73 | 155767 | 170764
13 | 37:56.65 | 4:37.24 | 170765 | 191563
14 | 42:34.14 | 3:29.02 | 191564 | 207240
15 | 46:03.16 | 2:35.61 | 207241 | 218926
16 | 48:39.02 | 3:13.17 | 218927 | 233418
17 | 51:52.19 | 3:24.69 | 233419 | 248787
18 | 55:17.13 | 3:08.28 | 248788 | 262915
19 | 58:25.41 | 2:20.62 | 262916 | 273477
20 | 60:46.28 | 5:02.37 | 273478 | 296164

Характеристики диапазона извлечения и сообщения об ошибках

Выбранный диапазон

Имя файла D:\Игорёче-че-к\Релизы\Музыка Экрана\Шедевры кинематографа\Various - Музыка Экрана - Шедевры кинематографа.wav

Подозрительная позиция 1:05:48

Пиковый уровень 99.9 %
Качество диапазона 99.9 %
CRC копии 877D3A78
Копирование... OK

Ошибок не произошло

Конец отчёта
Started at: вторник, 08. 12. 2009. - 6:52.22
1 file found

1 -===- D:\Игорёче-че-к\Релизы\Музыка Экрана\Шедевры кинематографа\Various - Музыка Экрана - Шедевры кинематографа.wav
Conclusion: this track is CDDA with probability 100%

Finished at: вторник, 08. 12. 2009. - 7:11.05 (operation time: 0:18.42)


Трекер:  [ 07-Июл-2011 23:28 ]

  

Скачать .torrent

Размер .torrent файла 22 KB


Размер: 1005 MB
Хэш (hash) релиза: ca1ab4e7e69c16dc38da484bef4c59c56c3efca3

Еще никто не оставлял запись к записи скачать торрент VA - Музыка экрана . Будь первым!

!Обратная связь