Скачать через торрент музыку Kill Bill - Vol. 1 - 2003, FLAC бесплатно без регистрации torrent

Статистика раздачи
Размер:  269 MB   |    Зарегистрирован:  7 лет 1 месяц   |    .torrent скачан:  52 раза   |   
Раздают:  1  
   
загрузка...
 
Автор Сообщение

Galfimbul

avatar Galfimbul


Kill Bill - Vol. 1

Страна: США
Жанр: OST
Год выпуска: 2003
Формат: FLAC (image + .cue)
Битрейт аудио: lossless
Продолжительность: 46:37
Трэклист:
1. Bang Bang (My Baby Shot Me Down) - Nancy Sinatra
2. That Certain Female - Charlie Feathers
3. The Grand Duel - (Parte Prima) - Luis Enrique Bacalov
4. Twisted Nerve - Bernard Herrmann
5. Queen of the Crime Council - Julie Dreyfus
6. Ode to Oren Ishii - RZA
7. Run Fay Fun - Isaac Hayes
8. Green Hornet - Al Hirt
9. Battle Without Honor or Humanity - Tomoyasu Hotei
10. Don't Let Me Be Misunderstood - Santa Esmeralda
11. Woo Hoo - 5.6.7.8's
12. Crane-White Lightning - RZA
13. The Flower of Carnage - Meiko Kaji
14. The Lonely Shepherd - Zamfir
15. You're My Wicked Life - David Carradine
16. Ironside - Quincy Jones
17. Super 16 - NEU!
18. Yakuza Oren 1 - RZA
19. Banister Fight - RZA
20. Flip Sting
21. Sword Swings
22. Axe Throws
Доп. информация:
TAU Analyzer summary: CDDA

Kill Bill - Vol.2 OST

EAC Log:
Exact Audio Copy V0.99 prebeta 3 from 28. July 2007

Отчёт EAC об извлечении, выполненном 12. сентября 2007, 0:14

Various / KILL BILL vol. 1

Дисковод: TOSHIBA DVD-ROM SD-M1712 Adapter: 0 ID: 0

Режим чтения : Достоверность
Использование точного потока : Да
Отключение кэша аудио : Да
Использование указателей C2 : Нет

Коррекция смещения при чтении : -472
Способность читать области Lead-in и Lead-out : Нет
Заполнение пропущенных сэмплов тишиной : Да
Удаление блоков с тишиной в начале и конце : Нет
При вычислениях CRC использовались нулевые сэмплы : Нет
Интерфейс : Установленный внешний ASPI-интерфейс

Выходной формат : Пользовательский кодировщик
Выбранный битрейт : 768 kBit/s
Качество : Высокий
Добавление ID3-тэга : Нет
Утилита сжатия : C:\Program Files\Exact Audio Copy\FLAC\FLAC.EXE
Дополнительные параметры : -6 -V -T "ARTIST=%a" -T "TITLE=%t" -T "ALBUM=%g" -T "DATE=%y" -T "TRACKNUMBER=%n" -T "GENRE=%m" -T "COMMENT=%e" %s -o %d

TOC извлечённого CD

Трек | Старт | Длительность | Начальный сектор | Конечный сектор
---------------------------------------------------------------------
1 | 0:00.00 | 2:39.47 | 0 | 11971
2 | 2:39.47 | 3:01.00 | 11972 | 25546
3 | 5:40.47 | 3:23.70 | 25547 | 40841
4 | 9:04.42 | 1:27.04 | 40842 | 47370
5 | 10:31.46 | 0:56.61 | 47371 | 51631
6 | 11:28.32 | 2:05.68 | 51632 | 61074
7 | 13:34.25 | 2:46.00 | 61075 | 73524
8 | 16:20.25 | 2:17.55 | 73525 | 83854
9 | 18:38.05 | 2:28.45 | 83855 | 94999
10 | 21:06.50 | 10:28.28 | 95000 | 142127
11 | 31:35.03 | 1:58.66 | 142128 | 151043
12 | 33:33.69 | 1:37.30 | 151044 | 158348
13 | 35:11.24 | 3:51.35 | 158349 | 175708
14 | 39:02.59 | 4:20.38 | 175709 | 195246
15 | 43:23.22 | 0:59.55 | 195247 | 199726
16 | 44:23.02 | 0:15.09 | 199727 | 200860
17 | 44:38.11 | 1:01.71 | 200861 | 205506
18 | 45:40.07 | 0:20.45 | 205507 | 207051
19 | 46:00.52 | 0:19.15 | 207052 | 208491
20 | 46:19.67 | 0:04.50 | 208492 | 208841
21 | 46:24.42 | 0:04.62 | 208842 | 209203
22 | 46:29.29 | 0:08.46 | 209204 | 209849

Характеристики диапазона извлечения и сообщения об ошибках

Выбранный диапазон

Имя файла D:\music\losless\Various - Kill Bill Vol2 OST\Various - KILL BILL vol. 1.wav

Пиковый уровень 100.0 %
Качество диапазона 100.0 %
CRC копии 0BDDEF13
Копирование... OK

Ошибок не произошло

Конец отчёта


Трекер:  [ 08-Июл-2011 02:12 ]

  

Скачать .torrent

Размер .torrent файла 11 KB


Размер: 269 MB
Хэш (hash) релиза: 5493d2b3e739375e55d69c8a7d1f2b5796d71768

Еще никто не оставлял запись к записи скачать торрент Kill Bill - Vol. 1 - 2003, FLAC . Будь первым!

!Обратная связь