Скачать через торрент музыку Клон Maktub Musica Original de el Clon by Marcus Viana - 2002, APE бесплатно без регистрации torrent

Статистика раздачи
Размер:  405 MB   |    Зарегистрирован:  7 лет 4 месяца   |    .torrent скачан:  70 раз   |   
Раздают:  1  
   
загрузка...
 
Автор Сообщение

Galfimbul

avatar Galfimbul


Marcus Viana - Maktub Musica Original de el Clon

Жанр: OST
Год выпуска: 2002
Формат: APE (image + .cue)
Битрейт аудио: lossless
Трэклист:
01. Maktub, Pt. 1
02. Mirage, Pt. 1
03. Oracion de la Maсana
04. Kyrie
05. Arenas
06. El Espejo
07. Siete Velos
08. Maktub, Pt. 2
09. Entre Dos Mundos
10. Espiritual
11. Isis
12. Kheops
13. Mirage [Instrumental]
14. Himno Al Sol
15. Danzas Sagradas de Isis
16. El Espiritu del Desierto
17. El Barco de Rб
18. Maktub, Pt. 3
19. Bajo el Sol
20. Mirage, Pt. 2
Доп. информация: Музыка из сериала "Клон".
Exact Audio Copy V0.99 prebeta 4 from 23. January 2008

Отчёт EAC об извлечении, выполненном 29. мая 2008, 13:37

Marcus Viana / Maktub: Musica Original de el Clon

Дисковод: Optiarc DVD RW AD-7203S Adapter: 2 ID: 1

Режим чтения : Достоверность
Использование точного потока : Да
Отключение кэша аудио : Да
Использование указателей C2 : Нет

Коррекция смещения при чтении : 48
Способность читать области Lead-in и Lead-out : Нет
Заполнение пропущенных сэмплов тишиной : Да
Удаление блоков с тишиной в начале и конце : Нет
При вычислениях CRC использовались нулевые сэмплы : Нет
Интерфейс : Встроенный Win32-интерфейс для Win NT/2000

Выходной формат : Внутренние WAV-операции
Формат сэмплов : 44.100 Гц; 16 бит; стерео

TOC извлечённого CD

Трек | Старт | Длительность | Начальный сектор | Конечный сектор
---------------------------------------------------------------------
1 | 0:00.00 | 5:27.15 | 0 | 24539
2 | 5:27.15 | 4:18.68 | 24540 | 43957
3 | 9:46.08 | 1:32.28 | 43958 | 50885
4 | 11:18.36 | 3:59.61 | 50886 | 68871
5 | 15:18.22 | 3:07.10 | 68872 | 82906
6 | 18:25.32 | 4:32.71 | 82907 | 103377
7 | 22:58.28 | 3:45.45 | 103378 | 120297
8 | 26:43.73 | 5:51.61 | 120298 | 146683
9 | 32:35.59 | 4:22.07 | 146684 | 166340
10 | 36:57.66 | 4:25.16 | 166341 | 186231
11 | 41:23.07 | 3:50.19 | 186232 | 203500
12 | 45:13.26 | 2:14.71 | 203501 | 213621
13 | 47:28.22 | 1:35.46 | 213622 | 220792
14 | 49:03.68 | 3:29.31 | 220793 | 236498
15 | 52:33.24 | 2:43.26 | 236499 | 248749
16 | 55:16.50 | 2:12.25 | 248750 | 258674
17 | 57:29.00 | 3:00.04 | 258675 | 272178
18 | 60:29.04 | 3:41.69 | 272179 | 288822
19 | 64:10.73 | 2:56.33 | 288823 | 302055
20 | 67:07.31 | 4:17.54 | 302056 | 321384

Характеристики диапазона извлечения и сообщения об ошибках

Выбранный диапазон

Имя файла C:\docs\Моя музыка\lossless\Marcus Viana - Maktub Musica Original de el Clon\Marcus Viana - Maktub Musica Original de el Clon.wav

Пиковый уровень 100.0 %
Качество диапазона 100.0 %
CRC копии FA33DE8F
Копирование... OK

Ошибок не произошло

AccurateRip: сводка

Трек 1 нет в базе данных
Трек 2 нет в базе данных
Трек 3 нет в базе данных
Трек 4 нет в базе данных
Трек 5 нет в базе данных
Трек 6 нет в базе данных
Трек 7 нет в базе данных
Трек 8 нет в базе данных
Трек 9 нет в базе данных
Трек 10 нет в базе данных
Трек 11 нет в базе данных
Трек 12 нет в базе данных
Трек 13 нет в базе данных
Трек 14 нет в базе данных
Трек 15 нет в базе данных
Трек 16 нет в базе данных
Трек 17 нет в базе данных
Трек 18 нет в базе данных
Трек 19 нет в базе данных
Трек 20 нет в базе данных

Ни одного трека нет в базе AccurateRip

Конец отчёта


Трекер:  [ 08-Июл-2011 02:12 ]

  

Скачать .torrent

Размер .torrent файла 16 KB


Размер: 405 MB
Хэш (hash) релиза: 6cd8e3b7a1d80a12c7d9b3734807cafb2d39f0d4

Еще никто не оставлял запись к записи скачать торрент Клон Maktub Musica Original de el Clon by Marcus Viana - 2002, APE . Будь первым!

!Обратная связь