Скачать через торрент музыку Пределы контроля The Limits of Control - 2009, FLAC бесплатно без регистрации torrent

Статистика раздачи
Размер:  338 MB   |    Зарегистрирован:  7 лет 4 месяца   |    .torrent скачан:  53 раза   |   
Раздают:  1  
   
загрузка...
 
Автор Сообщение

Galfimbul

avatar Galfimbul


Пределы контроля / The Limits of Control


Жанр: Soundtrack
Год выпуска : 2009
Лейбл : Lakeshore Records
Аудио кодек: FLAC
Тип рипа: tracks+.cue
Битрейт аудио: lossless
Продолжительность: 01:00:03
Рип: pokkeherrie - What CD
01. Bad Rabbit - Intro [color=gray](0:14)
02. Boris with Michio Kurihara - Fuzzy Reactor (3:43)
03. La Macarena - Saeta (2:18)
04. Bad Rabbit - Sea Green Sea (4:14)
05. Boris - Feedbacker (TLOC Edit) (3:33)
06. Manuel el Sevillano - Por Compasión Malaguenas (2:03)
07. Boris - Farewell (7:30)
08. Sunn O))) & Boris - N.L.T. (3:46)
09. Carmen Linares - El Que Se Tenga Por Grande (3:21)
10. Bad Rabbit - Dawn (1:42)
11. The Black Angels - You on the Run (4:51)
12. Earth and Bill Frisell - Omens and Portents 1: The Driver (TLOC Edit) (2:44)
13. Talegón de Córdoba & Jorge Rodriguez Padilla - El Que Se Tenga Por Grande (3:55)
14. Sunn O))) & Boris - Blood Swamp (TLOC Edit) (4:33)
15. Ensemble Villa Musica - Schubert 2. Adagio (String Quintet in C, D.965) (TLOC Edit) (5:16)
16. LCD Soundsystem - Daft Punk is Playing at my House (5:16)
17. Boris - ' ' (TLOC Edit) (1:04)
[/color]
 
Exact Audio Copy V0.99 prebeta 5 from 4. May 2009

EAC extraction logfile from 20. January 2010, 14:39

Various / The Limits of Control OST

Used drive : ASUS DVD-E616A2 Adapter: 1 ID: 1

Read mode : SecureUtilize accurate stream : YesDefeat audio cache : YesMake use of C2 pointers : No

Read offset correction : 6Overread into Lead-In and Lead-Out : NoFill up missing offset samples with silence : YesDelete leading and trailing silent blocks : NoNull samples used in CRC calculations : YesUsed interface : Native Win32 interface for Win NT & 2000Gap handling : Appended to previous track

Used output format : User Defined EncoderSelected bitrate : 320 kBit/sQuality : HighAdd ID3 tag : NoCommand line compressor : D:\Program Files\Exact Audio Copy\Flac\flac.exeAdditional command line options : -V -8 -T "artist=%a" -T "title=%t" -T "album=%g" -T "date=%y" -T "tracknumber=%n" -T "genre=%m" %s

TOC of the extracted CD

Track | Start | Length | Start sector | End sector --------------------------------------------------------- 1 | 0:00.00 | 0:13.62 | 0 | 1036 2 | 0:13.62 | 3:42.51 | 1037 | 17737 3 | 3:56.38 | 2:17.73 | 17738 | 28085 4 | 6:14.36 | 4:13.49 | 28086 | 47109 5 | 10:28.10 | 3:32.50 | 47110 | 63059 6 | 14:00.60 | 2:03.32 | 63060 | 72316 7 | 16:04.17 | 7:29.65 | 72317 | 106056 8 | 23:34.07 | 3:46.34 | 106057 | 123040 9 | 27:20.41 | 3:21.36 | 123041 | 138151 10 | 30:42.02 | 1:41.60 | 138152 | 145786 11 | 32:23.62 | 4:50.57 | 145787 | 167593 12 | 37:14.44 | 2:44.14 | 167594 | 179907 13 | 39:58.58 | 3:54.54 | 179908 | 197511 14 | 43:53.37 | 4:33.22 | 197512 | 218008 15 | 48:26.59 | 5:16.28 | 218009 | 241736 16 | 53:43.12 | 5:15.42 | 241737 | 265403 17 | 58:58.54 | 1:04.25 | 265404 | 270228

Track 1

Filename E:\EAC Rips\The Limits of Control OST (2009)\01 - Bad Rabbit - Intro.wav

Pre-gap length 0:00:02.00

Peak level 100.0 % Track quality 100.0 % Test CRC E1E21ACF Copy CRC E1E21ACF Accurately ripped (confidence 2) [5F20A9A2] Copy OK

Track 2

Filename E:\EAC Rips\The Limits of Control OST (2009)\02 - Boris with Michio Kurihara - Fuzzy Reactor.wav

Pre-gap length 0:00:00.20

Peak level 90.3 % Track quality 100.0 % Test CRC 445180FB Copy CRC 445180FB Accurately ripped (confidence 2) [7833592A] Copy OK

Track 3

Filename E:\EAC Rips\The Limits of Control OST (2009)\03 - La Macarena - Saeta.wav

Pre-gap length 0:00:01.54

Peak level 63.7 % Track quality 100.0 % Test CRC AFA8100F Copy CRC AFA8100F Accurately ripped (confidence 2) [7627F90B] Copy OK

Track 4

Filename E:\EAC Rips\The Limits of Control OST (2009)\04 - Bad Rabbit - Sea Green Sea.wav

Peak level 71.7 % Track quality 100.0 % Test CRC F3C62C48 Copy CRC F3C62C48 Accurately ripped (confidence 2) [43704FB5] Copy OK

Track 5

Filename E:\EAC Rips\The Limits of Control OST (2009)\05 - Boris - Feedbacker (TLOC Edit).wav

Peak level 100.0 % Track quality 100.0 % Test CRC 93CB641C Copy CRC 93CB641C Accurately ripped (confidence 2) [71208474] Copy OK

Track 6

Filename E:\EAC Rips\The Limits of Control OST (2009)\06 - Manuel el Sevillano - Por Compasiуn Malaguenas.wav

Pre-gap length 0:00:01.01

Peak level 65.9 % Track quality 100.0 % Test CRC D603E612 Copy CRC D603E612 Accurately ripped (confidence 2) [9D31F6E2] Copy OK

Track 7

Filename E:\EAC Rips\The Limits of Control OST (2009)\07 - Boris - Farewell.wav

Peak level 65.1 % Track quality 100.0 % Test CRC AF09EDAB Copy CRC AF09EDAB Accurately ripped (confidence 2) [43DCE004] Copy OK

Track 8

Filename E:\EAC Rips\The Limits of Control OST (2009)\08 - Sunn O))) & Boris - N.L.T..wav

Peak level 91.0 % Track quality 99.9 % Test CRC ACDCDD56 Copy CRC ACDCDD56 Accurately ripped (confidence 2) [2FFCBF89] Copy OK

Track 9

Filename E:\EAC Rips\The Limits of Control OST (2009)\09 - Carmen Linares - El Que Se Tenga Por Grande.wav

Peak level 100.0 % Track quality 100.0 % Test CRC 54171555 Copy CRC 54171555 Accurately ripped (confidence 2) [DDCD13CC] Copy OK

Track 10

Filename E:\EAC Rips\The Limits of Control OST (2009)\10 - Bad Rabbit - Dawn.wav

Pre-gap length 0:00:00.43

Peak level 97.8 % Track quality 100.0 % Test CRC AB4C0422 Copy CRC AB4C0422 Accurately ripped (confidence 2) [313C2B0E] Copy OK

Track 11

Filename E:\EAC Rips\The Limits of Control OST (2009)\11 - The Black Angels - You on the Run.wav

Pre-gap length 0:00:01.49

Peak level 92.7 % Track quality 100.0 % Test CRC 391E1DCC Copy CRC 391E1DCC Accurately ripped (confidence 2) [70758C32] Copy OK

Track 12

Filename E:\EAC Rips\The Limits of Control OST (2009)\12 - Earth and Bill Frisell - Omens and Portents 1- The Driver (TLOC Edit).wav

Pre-gap length 0:00:00.58

Peak level 100.0 % Track quality 100.0 % Test CRC D618A2CC Copy CRC D618A2CC Accurately ripped (confidence 2) [8B6A1A7A] Copy OK

Track 13

Filename E:\EAC Rips\The Limits of Control OST (2009)\13 - Talegуn de Cуrdoba & Jorge Rodriguez Padilla - El Que Se Tenga Por Grande.wav

Pre-gap length 0:00:00.26

Peak level 100.0 % Track quality 100.0 % Test CRC D4734AEE Copy CRC D4734AEE Accurately ripped (confidence 2) [030677AF] Copy OK

Track 14

Filename E:\EAC Rips\The Limits of Control OST (2009)\14 - Sunn O))) & Boris - Blood Swamp (TLOC Edit).wav

Peak level 100.0 % Track quality 99.9 % Test CRC 0E89DBF5 Copy CRC 0E89DBF5 Accurately ripped (confidence 2) [34160BC4] Copy OK

Track 15

Filename E:\EAC Rips\The Limits of Control OST (2009)\15 - Ensemble Villa Musica - Schubert 2. Adagio (String Quintet in C, D.965) (TLOC Edit).wav

Peak level 100.0 % Track quality 100.0 % Test CRC 019335DA Copy CRC 019335DA Accurately ripped (confidence 2) [9442C15C] Copy OK

Track 16

Filename E:\EAC Rips\The Limits of Control OST (2009)\16 - LCD Soundsystem - Daft Punk is Playing at my House.wav

Peak level 68.8 % Track quality 100.0 % Test CRC DA3CA58A Copy CRC DA3CA58A Accurately ripped (confidence 2) [125B69C1] Copy OK

Track 17

Filename E:\EAC Rips\The Limits of Control OST (2009)\17 - Boris - ' ' (TLOC Edit).wav

Pre-gap length 0:00:00.73

Peak level 98.1 % Track quality 100.0 % Test CRC D6857DF7 Copy CRC D6857DF7 Accurately ripped (confidence 2) [B13A2C59] Copy OK

All tracks accurately ripped

No errors occurred

End of status report
 
REM GENRE SoundtrackREM DATE 2009REM DISCID DC0E1311REM COMMENT "ExactAudioCopy v0.99pb5"PERFORMER "Various"TITLE "The Limits of Control"FILE "01 - Bad Rabbit - Intro.wav" WAVE TRACK 01 AUDIO TITLE "Intro" PERFORMER "Bad Rabbit" INDEX 01 00:00:00 TRACK 02 AUDIO TITLE "Fuzzy Reactor" PERFORMER "Boris with Michio Kurihara" INDEX 00 00:13:42FILE "02 - Boris with Michio Kurihara - Fuzzy Reactor.wav" WAVE INDEX 01 00:00:00 TRACK 03 AUDIO TITLE "Saeta" PERFORMER "La Macarena" INDEX 00 03:40:72FILE "03 - La Macarena - Saeta.wav" WAVE INDEX 01 00:00:00FILE "04 - Bad Rabbit - Sea Green Sea.wav" WAVE TRACK 04 AUDIO TITLE "Sea Green Sea" PERFORMER "Bad Rabbit" INDEX 01 00:00:00FILE "05 - Boris - Feedbacker (TLOC Edit).wav" WAVE TRACK 05 AUDIO TITLE "Feedbacker (TLOC Edit)" PERFORMER "Boris" INDEX 01 00:00:00 TRACK 06 AUDIO TITLE "Por Compasiуn Malaguenas" PERFORMER "Manuel el Sevillano" INDEX 00 03:31:49FILE "06 - Manuel el Sevillano - Por Compasiуn Malaguenas.wav" WAVE INDEX 01 00:00:00FILE "07 - Boris - Farewell.wav" WAVE TRACK 07 AUDIO TITLE "Farewell" PERFORMER "Boris" INDEX 01 00:00:00FILE "08 - Sunn O))) & Boris - N.L.T..wav" WAVE TRACK 08 AUDIO TITLE "N.L.T." PERFORMER "Sunn O))) & Boris" INDEX 01 00:00:00FILE "09 - Carmen Linares - El Que Se Tenga Por Grande.wav" WAVE TRACK 09 AUDIO TITLE "El Que Se Tenga Por Grande" PERFORMER "Carmen Linares" INDEX 01 00:00:00 TRACK 10 AUDIO TITLE "Dawn" PERFORMER "Bad Rabbit" INDEX 00 03:20:68FILE "10 - Bad Rabbit - Dawn.wav" WAVE INDEX 01 00:00:00 TRACK 11 AUDIO TITLE "You on the Run" PERFORMER "The Black Angels" INDEX 00 01:40:11FILE "11 - The Black Angels - You on the Run.wav" WAVE INDEX 01 00:00:00 TRACK 12 AUDIO TITLE "Omens and Portents 1: The Driver (TLOC Edit)" PERFORMER "Earth and Bill Frisell" INDEX 00 04:49:74FILE "12 - Earth and Bill Frisell - Omens and Portents 1- The Driver (TLOC Edit).wav" WAVE INDEX 01 00:00:00 TRACK 13 AUDIO TITLE "El Que Se Tenga Por Grande" PERFORMER "Talegуn de Cуrdoba & Jorge Rodriguez Padilla" INDEX 00 02:43:63FILE "13 - Talegуn de Cуrdoba & Jorge Rodriguez Padilla - El Que Se Tenga Por Grande.wav" WAVE INDEX 01 00:00:00FILE "14 - Sunn O))) & Boris - Blood Swamp (TLOC Edit).wav" WAVE TRACK 14 AUDIO TITLE "Blood Swamp (TLOC Edit) " PERFORMER "Sunn O))) & Boris" INDEX 01 00:00:00FILE "15 - Ensemble Villa Musica - Schubert 2. Adagio (String Quintet in C, D.965) (TLOC Edit).wav" WAVE TRACK 15 AUDIO TITLE "Schubert 2. Adagio (String Quintet in C, D.965) (TLOC Edit)" PERFORMER "Ensemble Villa Musica" INDEX 01 00:00:00FILE "16 - LCD Soundsystem - Daft Punk is Playing at my House.wav" WAVE TRACK 16 AUDIO TITLE "Daft Punk is Playing at my House" PERFORMER "LCD Soundsystem" INDEX 01 00:00:00 TRACK 17 AUDIO TITLE "' ' (TLOC Edit)" PERFORMER "Boris" INDEX 00 05:14:44FILE "17 - Boris - ' ' (TLOC Edit).wav" WAVE INDEX 01 00:00:00
 
Started at: суббота, 23. 01. 2010. - 19:50.10

17 files found

01 -===- C:\Downloads\Music\Другое\The Limits of Control - 2009\01 - Bad Rabbit - Intro.flac Extracted successfully Conclusion: This track looks like CDDA with probability 100% Tempfile successfully deleted.

02 -===- C:\Downloads\Music\Другое\The Limits of Control - 2009\02 - Boris with Michio Kurihara - Fuzzy Reactor.flac Extracted successfully Conclusion: This track looks like CDDA with probability 100% Tempfile successfully deleted.

03 -===- C:\Downloads\Music\Другое\The Limits of Control - 2009\03 - La Macarena - Saeta.flac Extracted successfully Conclusion: This track looks like CDDA with probability 100% Tempfile successfully deleted.

04 -===- C:\Downloads\Music\Другое\The Limits of Control - 2009\04 - Bad Rabbit - Sea Green Sea.flac Extracted successfully Conclusion: This track looks like CDDA with probability 100% Tempfile successfully deleted.

05 -===- C:\Downloads\Music\Другое\The Limits of Control - 2009\05 - Boris - Feedbacker (TLOC Edit).flac Extracted successfully Conclusion: This track looks like CDDA with probability 100% Tempfile successfully deleted.

06 -===- C:\Downloads\Music\Другое\The Limits of Control - 2009\06 - Manuel el Sevillano - Por Compasiуn Malaguenas.flac Extracted successfully Conclusion: This track looks like CDDA with probability 100% Tempfile successfully deleted.

07 -===- C:\Downloads\Music\Другое\The Limits of Control - 2009\07 - Boris - Farewell.flac Extracted successfully Conclusion: This track looks like CDDA with probability 100% Tempfile successfully deleted.

08 -===- C:\Downloads\Music\Другое\The Limits of Control - 2009\08 - Sunn O))) & Boris - N.L.T..flac Extracted successfully Conclusion: This track looks like CDDA with probability 100% Tempfile successfully deleted.

09 -===- C:\Downloads\Music\Другое\The Limits of Control - 2009\09 - Carmen Linares - El Que Se Tenga Por Grande.flac Extracted successfully Conclusion: This track looks like CDDA with probability 100% Tempfile successfully deleted.

10 -===- C:\Downloads\Music\Другое\The Limits of Control - 2009\10 - Bad Rabbit - Dawn.flac Extracted successfully Conclusion: This track looks like CDDA with probability 100% Tempfile successfully deleted.

11 -===- C:\Downloads\Music\Другое\The Limits of Control - 2009\11 - The Black Angels - You on the Run.flac Extracted successfully Conclusion: This track looks like CDDA with probability 100% Tempfile successfully deleted.

12 -===- C:\Downloads\Music\Другое\The Limits of Control - 2009\12 - Earth and Bill Frisell - Omens and Portents 1- The Driver (TLOC Edit).flac Extracted successfully Conclusion: This track looks like CDDA with probability 100% Tempfile successfully deleted.

13 -===- C:\Downloads\Music\Другое\The Limits of Control - 2009\13 - Talegуn de Cуrdoba & Jorge Rodriguez Padilla - El Que Se Tenga Por Grande.flac Extracted successfully Conclusion: This track looks like CDDA with probability 100% Tempfile successfully deleted.

14 -===- C:\Downloads\Music\Другое\The Limits of Control - 2009\14 - Sunn O))) & Boris - Blood Swamp (TLOC Edit).flac Extracted successfully Conclusion: This track looks like CDDA with probability 99% Tempfile successfully deleted.

15 -===- C:\Downloads\Music\Другое\The Limits of Control - 2009\15 - Ensemble Villa Musica - Schubert 2. Adagio (String Quintet in C, D.965) (TLOC Edit).flac Extracted successfully Conclusion: This track looks like CDDA with probability 100% Tempfile successfully deleted.

16 -===- C:\Downloads\Music\Другое\The Limits of Control - 2009\16 - LCD Soundsystem - Daft Punk is Playing at my House.flac Extracted successfully Conclusion: This track looks like CDDA with probability 100% Tempfile successfully deleted.

17 -===- C:\Downloads\Music\Другое\The Limits of Control - 2009\17 - Boris - ' ' (TLOC Edit).flac Extracted successfully Conclusion: This track looks like CDDA with probability 100% Tempfile successfully deleted.

Finished at: суббота, 23. 01. 2010. - 20:01.36 (operation time: 0:11.25)


Трекер:  [ 08-Июл-2011 02:12 ]

  

Скачать .torrent

Размер .torrent файла 15 KB


Размер: 338 MB
Хэш (hash) релиза: b50f5775d535440d109147d1b17ac5d21e13ef9f

Еще никто не оставлял запись к записи скачать торрент Пределы контроля The Limits of Control - 2009, FLAC . Будь первым!

!Обратная связь