Скачать через торрент музыку Сита поет блюз Sita Sings the Blues бесплатно без регистрации torrent

Статистика раздачи
Размер:  306 MB   |    Зарегистрирован:  6 лет 9 месяцев   |    .torrent скачан:  114 раз   |   
Раздают:  1  
   
загрузка...
 
Автор Сообщение

Galfimbul

avatar Galfimbul


Сита поет блюз / Sita Sings the Blues

Жанр: Soundtrack || Год выпуска: 2009 || Страна: USA || Аудио кодек: FLAC || Тип рипа: tracks+.cue || Битрейт аудио: lossless
Продолжительность: 01:08:29 || Источник: what.cd

01 - Todd Michaelson - Sita in Space (03:13)
02 - Annette Hanshaw - Here We Are (02:58)
03 - Masaladosa - Biryani (04:22)
04 - Annette Hanshaw - What Wouldn't I Do for That Man? (02:49)
05 - Todd Michaelson - Sita Regal (01:35)
06 - Annette Hanshaw - Daddy Won't You Please Come Home? (03:00)
07 - Masaladosa - Ganpati (04:32)
08 - Annette Hanshaw - Who's That Knockin'? (02:51)
09 - Todd Michaelson - Sita Flute (01:41)
10 - Annette Hanshaw - Mean to Me (03:16)
11 - Masaladosa - Bom Shankar (03:39)
12 - Annette Hanshaw - If You Want the Rainbow (02:51)
13 - Nik Phelps & The Sprocket Ensemble - Intermission (02:40)
14 - Todd Michaelson - Sita's String Theory (04:00)
15 - Annette Hanshaw - Moanin' Low (03:27)
16 - Todd Michaelson - Agni Pariksh (02:59)
17 - Annette Hanshaw - Am I Blue (03:14)
18 - Rohan - Rama's Great (01:35)
19 - Annette Hanshaw - Lover Come Back to Me (03:03)
20 - Todd Michaelson - Sita Returns to Mother Earth (01:32)
21 - Annette Hanshaw - I've Got a Feelin' I'm Fallin' (02:54)
22 - Rohan - Burnt Sugar (03:08)
23 - Annette Hanshaw - The Song Is Ended (03:10)

 
X Lossless Decoder version 20100518 (120.3)

XLD extraction logfile from 2010-06-24 02:23:18 -0500

Various Artists / Sita Sings the Blues

Used drive : PIONEER DVD-RW DVR-112D (revision 1.21)

Use cdparanoia mode : YES (CDParanoia III 10.2 engine)Disable audio cache : OK for the drive with cache less than 2750KBMake use of C2 pointers : NORead offset correction : 48Max retry count : 100

TOC of the extracted CD Track | Start | Length | Start sector | End sector --------------------------------------------------------- 1 | 00:00:00 | 03:13:18 | 0 | 14492 2 | 03:13:18 | 02:58:29 | 14493 | 27871 3 | 06:11:47 | 04:21:72 | 27872 | 47518 4 | 10:33:44 | 02:49:04 | 47519 | 60197 5 | 13:22:48 | 01:35:04 | 60198 | 67326 6 | 14:57:52 | 02:59:50 | 67327 | 80801 7 | 17:57:27 | 04:32:35 | 80802 | 101236 8 | 22:29:62 | 02:50:51 | 101237 | 114037 9 | 25:20:38 | 01:41:09 | 114038 | 121621 10 | 27:01:47 | 03:16:01 | 121622 | 136322 11 | 30:17:48 | 03:38:54 | 136323 | 152726 12 | 33:56:27 | 02:51:28 | 152727 | 165579 13 | 36:47:55 | 02:39:38 | 165580 | 177542 14 | 39:27:18 | 03:59:73 | 177543 | 195540 15 | 43:27:16 | 03:26:64 | 195541 | 211054 16 | 46:54:05 | 02:59:22 | 211055 | 224501 17 | 49:53:27 | 03:14:18 | 224502 | 239069 18 | 53:07:45 | 01:34:64 | 239070 | 246183 19 | 54:42:34 | 03:03:04 | 246184 | 259912 20 | 57:45:38 | 01:31:71 | 259913 | 266808 21 | 59:17:34 | 02:54:07 | 266809 | 279865 22 | 62:11:41 | 03:08:13 | 279866 | 293978 23 | 65:19:54 | 03:10:17 | 293979 | 308245

All Tracks Album gain : -0.69 dB Peak : 0.982758

Track 01 Filename : /Volumes/Romulus/Filesharing/New Rips/01 - Sita in Space.flac

Pre-gap length : 00:02:00

Track gain : 2.74 dB Peak : 0.504517 CRC32 hash (test run) : CD90586F CRC32 hash : CD90586F CRC32 hash (skip zero) : 4FAEEF88 AccurateRip signature : 663B55C0 ->Track not present in AccurateRip database. Statistics Read error : 0 Skipped (treated as error) : 0 Edge jitter error (maybe fixed) : 0 Atom jitter error (maybe fixed) : 0 Drift error (maybe fixed) : 0 Dropped bytes error (maybe fixed) : 0 Duplicated bytes error (maybe fixed) : 0 Inconsistency in error sectors : 0

Track 02 Filename : /Volumes/Romulus/Filesharing/New Rips/02 - Here We Are.flac

Track gain : -1.17 dB Peak : 0.713776 CRC32 hash (test run) : 5805932A CRC32 hash : 5805932A CRC32 hash (skip zero) : 44F4DB82 AccurateRip signature : DEDD450C ->Track not present in AccurateRip database. Statistics Read error : 0 Skipped (treated as error) : 0 Edge jitter error (maybe fixed) : 0 Atom jitter error (maybe fixed) : 0 Drift error (maybe fixed) : 0 Dropped bytes error (maybe fixed) : 0 Duplicated bytes error (maybe fixed) : 0 Inconsistency in error sectors : 0

Track 03 Filename : /Volumes/Romulus/Filesharing/New Rips/03 - Biryani.flac

Track gain : 3.07 dB Peak : 0.437866 CRC32 hash (test run) : 01E797D7 CRC32 hash : 01E797D7 CRC32 hash (skip zero) : 0CED0BE2 AccurateRip signature : 5B5F36B3 ->Track not present in AccurateRip database. Statistics Read error : 0 Skipped (treated as error) : 0 Edge jitter error (maybe fixed) : 0 Atom jitter error (maybe fixed) : 0 Drift error (maybe fixed) : 0 Dropped bytes error (maybe fixed) : 0 Duplicated bytes error (maybe fixed) : 0 Inconsistency in error sectors : 0

Track 04 Filename : /Volumes/Romulus/Filesharing/New Rips/04 - What Wouldn't I Do for That Man?.flac

Track gain : -0.64 dB Peak : 0.557007 CRC32 hash (test run) : 5030C69B CRC32 hash : 5030C69B CRC32 hash (skip zero) : 28387A94 AccurateRip signature : 4979688F ->Track not present in AccurateRip database. Statistics Read error : 0 Skipped (treated as error) : 0 Edge jitter error (maybe fixed) : 0 Atom jitter error (maybe fixed) : 0 Drift error (maybe fixed) : 0 Dropped bytes error (maybe fixed) : 0 Duplicated bytes error (maybe fixed) : 0 Inconsistency in error sectors : 0

Track 05 Filename : /Volumes/Romulus/Filesharing/New Rips/05 - Sita Regal.flac

Track gain : 3.44 dB Peak : 0.414276 CRC32 hash (test run) : EDB05B4C CRC32 hash : EDB05B4C CRC32 hash (skip zero) : C40121AA AccurateRip signature : 91AB3460 ->Track not present in AccurateRip database. Statistics Read error : 0 Skipped (treated as error) : 0 Edge jitter error (maybe fixed) : 0 Atom jitter error (maybe fixed) : 0 Drift error (maybe fixed) : 0 Dropped bytes error (maybe fixed) : 0 Duplicated bytes error (maybe fixed) : 0 Inconsistency in error sectors : 0

Track 06 Filename : /Volumes/Romulus/Filesharing/New Rips/06 - Daddy Won't You Please Come Home?.flac

Track gain : -1.35 dB Peak : 0.697418 CRC32 hash (test run) : E61ECFE6 CRC32 hash : E61ECFE6 CRC32 hash (skip zero) : 393703C4 AccurateRip signature : 5CE14130 ->Track not present in AccurateRip database. Statistics Read error : 0 Skipped (treated as error) : 0 Edge jitter error (maybe fixed) : 0 Atom jitter error (maybe fixed) : 0 Drift error (maybe fixed) : 0 Dropped bytes error (maybe fixed) : 0 Duplicated bytes error (maybe fixed) : 0 Inconsistency in error sectors : 0

Track 07 Filename : /Volumes/Romulus/Filesharing/New Rips/07 - Ganpati.flac

Track gain : 4.85 dB Peak : 0.390472 CRC32 hash (test run) : 9DCD8976 CRC32 hash : 9DCD8976 CRC32 hash (skip zero) : 5443FB04 AccurateRip signature : B4747626 ->Track not present in AccurateRip database. Statistics Read error : 0 Skipped (treated as error) : 0 Edge jitter error (maybe fixed) : 0 Atom jitter error (maybe fixed) : 0 Drift error (maybe fixed) : 0 Dropped bytes error (maybe fixed) : 0 Duplicated bytes error (maybe fixed) : 0 Inconsistency in error sectors : 0

Track 08 Filename : /Volumes/Romulus/Filesharing/New Rips/08 - Who's That Knockin'?.flac

Track gain : -4.53 dB Peak : 0.893860 CRC32 hash (test run) : 0ABAE0B8 CRC32 hash : 0ABAE0B8 CRC32 hash (skip zero) : A12BECB8 AccurateRip signature : 1D90EC8D ->Track not present in AccurateRip database. Statistics Read error : 0 Skipped (treated as error) : 0 Edge jitter error (maybe fixed) : 0 Atom jitter error (maybe fixed) : 0 Drift error (maybe fixed) : 0 Dropped bytes error (maybe fixed) : 0 Duplicated bytes error (maybe fixed) : 0 Inconsistency in error sectors : 0

Track 09 Filename : /Volumes/Romulus/Filesharing/New Rips/09 - Sita Flute.flac

Track gain : 5.99 dB Peak : 0.350769 CRC32 hash (test run) : 5DC04473 CRC32 hash : 5DC04473 CRC32 hash (skip zero) : 01ED8048 AccurateRip signature : 897A72F0 ->Track not present in AccurateRip database. Statistics Read error : 0 Skipped (treated as error) : 0 Edge jitter error (maybe fixed) : 0 Atom jitter error (maybe fixed) : 0 Drift error (maybe fixed) : 0 Dropped bytes error (maybe fixed) : 0 Duplicated bytes error (maybe fixed) : 0 Inconsistency in error sectors : 0

Track 10 Filename : /Volumes/Romulus/Filesharing/New Rips/10 - Mean to Me.flac

Track gain : -1.49 dB Peak : 0.982758 CRC32 hash (test run) : 41003E8A CRC32 hash : 41003E8A CRC32 hash (skip zero) : D8F1B511 AccurateRip signature : 08C38C0B ->Track not present in AccurateRip database. Statistics Read error : 0 Skipped (treated as error) : 0 Edge jitter error (maybe fixed) : 0 Atom jitter error (maybe fixed) : 0 Drift error (maybe fixed) : 0 Dropped bytes error (maybe fixed) : 0 Duplicated bytes error (maybe fixed) : 0 Inconsistency in error sectors : 0

Track 11 Filename : /Volumes/Romulus/Filesharing/New Rips/11 - Bom Shankar.flac

Track gain : 4.74 dB Peak : 0.360077 CRC32 hash (test run) : DF8DDBA8 CRC32 hash : DF8DDBA8 CRC32 hash (skip zero) : C589BE43 AccurateRip signature : D1F1990A ->Track not present in AccurateRip database. Statistics Read error : 0 Skipped (treated as error) : 0 Edge jitter error (maybe fixed) : 0 Atom jitter error (maybe fixed) : 0 Drift error (maybe fixed) : 0 Dropped bytes error (maybe fixed) : 0 Duplicated bytes error (maybe fixed) : 0 Inconsistency in error sectors : 0

Track 12 Filename : /Volumes/Romulus/Filesharing/New Rips/12 - If You Want the Rainbow.flac

Track gain : -0.70 dB Peak : 0.544556 CRC32 hash (test run) : 8E78ED55 CRC32 hash : 8E78ED55 CRC32 hash (skip zero) : AE8B712B AccurateRip signature : 6D3E4306 ->Track not present in AccurateRip database. Statistics Read error : 0 Skipped (treated as error) : 0 Edge jitter error (maybe fixed) : 0 Atom jitter error (maybe fixed) : 0 Drift error (maybe fixed) : 0 Dropped bytes error (maybe fixed) : 0 Duplicated bytes error (maybe fixed) : 0 Inconsistency in error sectors : 0

Track 13 Filename : /Volumes/Romulus/Filesharing/New Rips/13 - Intermission.flac

Track gain : 0.41 dB Peak : 0.709961 CRC32 hash (test run) : C25470A2 CRC32 hash : C25470A2 CRC32 hash (skip zero) : 2AB62FE6 AccurateRip signature : 55A12B69 ->Track not present in AccurateRip database. Statistics Read error : 0 Skipped (treated as error) : 0 Edge jitter error (maybe fixed) : 0 Atom jitter error (maybe fixed) : 0 Drift error (maybe fixed) : 0 Dropped bytes error (maybe fixed) : 0 Duplicated bytes error (maybe fixed) : 0 Inconsistency in error sectors : 0

Track 14 Filename : /Volumes/Romulus/Filesharing/New Rips/14 - Sita's String Theory.flac

Track gain : 0.79 dB Peak : 0.323730 CRC32 hash (test run) : EE184795 CRC32 hash : EE184795 CRC32 hash (skip zero) : 347E0E26 AccurateRip signature : 18971A9A ->Track not present in AccurateRip database. Statistics Read error : 0 Skipped (treated as error) : 0 Edge jitter error (maybe fixed) : 0 Atom jitter error (maybe fixed) : 0 Drift error (maybe fixed) : 0 Dropped bytes error (maybe fixed) : 0 Duplicated bytes error (maybe fixed) : 0 Inconsistency in error sectors : 0

Track 15 Filename : /Volumes/Romulus/Filesharing/New Rips/15 - Moanin' Low.flac

Track gain : -0.72 dB Peak : 0.696686 CRC32 hash (test run) : 9001EFED CRC32 hash : 9001EFED CRC32 hash (skip zero) : 63CBEB13 AccurateRip signature : 3E602711 ->Track not present in AccurateRip database. Statistics Read error : 0 Skipped (treated as error) : 0 Edge jitter error (maybe fixed) : 0 Atom jitter error (maybe fixed) : 0 Drift error (maybe fixed) : 0 Dropped bytes error (maybe fixed) : 0 Duplicated bytes error (maybe fixed) : 0 Inconsistency in error sectors : 0

Track 16 Filename : /Volumes/Romulus/Filesharing/New Rips/16 - Agni Pariksh.flac

Track gain : -2.58 dB Peak : 0.778717 CRC32 hash (test run) : CB88A897 CRC32 hash : CB88A897 CRC32 hash (skip zero) : 8B37BA4E AccurateRip signature : 9EC42338 ->Track not present in AccurateRip database. Statistics Read error : 0 Skipped (treated as error) : 0 Edge jitter error (maybe fixed) : 0 Atom jitter error (maybe fixed) : 0 Drift error (maybe fixed) : 0 Dropped bytes error (maybe fixed) : 0 Duplicated bytes error (maybe fixed) : 0 Inconsistency in error sectors : 0

Track 17 Filename : /Volumes/Romulus/Filesharing/New Rips/17 - Am I Blue.flac

Track gain : -1.31 dB Peak : 0.629822 CRC32 hash (test run) : D9AAA836 CRC32 hash : D9AAA836 CRC32 hash (skip zero) : BBA6F0D2 AccurateRip signature : C4BB3D91 ->Track not present in AccurateRip database. Statistics Read error : 0 Skipped (treated as error) : 0 Edge jitter error (maybe fixed) : 0 Atom jitter error (maybe fixed) : 0 Drift error (maybe fixed) : 0 Dropped bytes error (maybe fixed) : 0 Duplicated bytes error (maybe fixed) : 0 Inconsistency in error sectors : 0

Track 18 Filename : /Volumes/Romulus/Filesharing/New Rips/18 - Rama's Great.flac

Track gain : 0.65 dB Peak : 0.354401 CRC32 hash (test run) : 44EA9A98 CRC32 hash : 44EA9A98 CRC32 hash (skip zero) : EBA2D926 AccurateRip signature : 9B3AAADA ->Track not present in AccurateRip database. Statistics Read error : 0 Skipped (treated as error) : 0 Edge jitter error (maybe fixed) : 0 Atom jitter error (maybe fixed) : 0 Drift error (maybe fixed) : 0 Dropped bytes error (maybe fixed) : 0 Duplicated bytes error (maybe fixed) : 0 Inconsistency in error sectors : 0

Track 19 Filename : /Volumes/Romulus/Filesharing/New Rips/19 - Lover Come Back to Me.flac

Track gain : -1.40 dB Peak : 0.798370 CRC32 hash (test run) : 06334806 CRC32 hash : 06334806 CRC32 hash (skip zero) : 2E64DB94 AccurateRip signature : C934DA4E ->Track not present in AccurateRip database. Statistics Read error : 0 Skipped (treated as error) : 0 Edge jitter error (maybe fixed) : 0 Atom jitter error (maybe fixed) : 0 Drift error (maybe fixed) : 0 Dropped bytes error (maybe fixed) : 0 Duplicated bytes error (maybe fixed) : 0 Inconsistency in error sectors : 0

Track 20 Filename : /Volumes/Romulus/Filesharing/New Rips/20 - Sita Returns to Mother Earth.flac

Track gain : 0.72 dB Peak : 0.593567 CRC32 hash (test run) : C5CD3FDB CRC32 hash : C5CD3FDB CRC32 hash (skip zero) : C02C6FC5 AccurateRip signature : E9BCC58D ->Track not present in AccurateRip database. Statistics Read error : 0 Skipped (treated as error) : 0 Edge jitter error (maybe fixed) : 0 Atom jitter error (maybe fixed) : 0 Drift error (maybe fixed) : 0 Dropped bytes error (maybe fixed) : 0 Duplicated bytes error (maybe fixed) : 0 Inconsistency in error sectors : 0

Track 21 Filename : /Volumes/Romulus/Filesharing/New Rips/21 - I've Got a Feelin' I'm Fallin'.flac

Track gain : -0.41 dB Peak : 0.651459 CRC32 hash (test run) : 22FBE253 CRC32 hash : 22FBE253 CRC32 hash (skip zero) : AE69E5AB AccurateRip signature : 7C51F42C ->Track not present in AccurateRip database. Statistics Read error : 0 Skipped (treated as error) : 0 Edge jitter error (maybe fixed) : 0 Atom jitter error (maybe fixed) : 0 Drift error (maybe fixed) : 0 Dropped bytes error (maybe fixed) : 0 Duplicated bytes error (maybe fixed) : 0 Inconsistency in error sectors : 0

Track 22 Filename : /Volumes/Romulus/Filesharing/New Rips/22 - Burnt Sugar.flac

Track gain : 1.48 dB Peak : 0.503632 CRC32 hash (test run) : 590AA405 CRC32 hash : 590AA405 CRC32 hash (skip zero) : 4DC8CBB9 AccurateRip signature : 4A20A6B2 ->Track not present in AccurateRip database. Statistics Read error : 0 Skipped (treated as error) : 0 Edge jitter error (maybe fixed) : 0 Atom jitter error (maybe fixed) : 0 Drift error (maybe fixed) : 0 Dropped bytes error (maybe fixed) : 0 Duplicated bytes error (maybe fixed) : 0 Inconsistency in error sectors : 0

Track 23 Filename : /Volumes/Romulus/Filesharing/New Rips/23 - The Song Is Ended.flac

Track gain : -2.14 dB Peak : 0.657501 CRC32 hash (test run) : 2A87B7C8 CRC32 hash : 2A87B7C8 CRC32 hash (skip zero) : CC2A1DD6 AccurateRip signature : F8F11FEC ->Track not present in AccurateRip database. Statistics Read error : 0 Skipped (treated as error) : 0 Edge jitter error (maybe fixed) : 0 Atom jitter error (maybe fixed) : 0 Drift error (maybe fixed) : 0 Dropped bytes error (maybe fixed) : 0 Duplicated bytes error (maybe fixed) : 0 Inconsistency in error sectors : 0

No errors occurred

End of status report
 
TITLE "Sita Sings the Blues"REM GENRE "Soundtrack"REM DATE "2010-02-16"REM DISCNUMBER 1REM TOTALDISCS 1REM DISCID 6F100D17FILE "01 - Sita in Space.wav" WAVE TRACK 01 AUDIO TITLE "Sita in Space" PERFORMER "Todd Michaelson" SONGWRITER "Various" INDEX 01 00:00:00FILE "02 - Here We Are.wav" WAVE TRACK 02 AUDIO TITLE "Here We Are" PERFORMER "Annette Hanshaw" SONGWRITER "Various" INDEX 01 00:00:00FILE "03 - Biryani.wav" WAVE TRACK 03 AUDIO TITLE "Biryani" PERFORMER "Masaladosa" SONGWRITER "Various" INDEX 01 00:00:00FILE "04 - What Wouldn't I Do for That Man?.wav" WAVE TRACK 04 AUDIO TITLE "What Wouldn't I Do for That Man?" PERFORMER "Annette Hanshaw" SONGWRITER "Various" INDEX 01 00:00:00FILE "05 - Sita Regal.wav" WAVE TRACK 05 AUDIO TITLE "Sita Regal" PERFORMER "Todd Michaelson" SONGWRITER "Various" INDEX 01 00:00:00FILE "06 - Daddy Won't You Please Come Home?.wav" WAVE TRACK 06 AUDIO TITLE "Daddy Won't You Please Come Home?" PERFORMER "Annette Hanshaw" SONGWRITER "Various" INDEX 01 00:00:00FILE "07 - Ganpati.wav" WAVE TRACK 07 AUDIO TITLE "Ganpati" PERFORMER "Masaladosa" SONGWRITER "Various" INDEX 01 00:00:00FILE "08 - Who's That Knockin'?.wav" WAVE TRACK 08 AUDIO TITLE "Who's That Knockin'?" PERFORMER "Annette Hanshaw" SONGWRITER "Various" INDEX 01 00:00:00FILE "09 - Sita Flute.wav" WAVE TRACK 09 AUDIO TITLE "Sita Flute" PERFORMER "Todd Michaelson" SONGWRITER "Various" INDEX 01 00:00:00FILE "10 - Mean to Me.wav" WAVE TRACK 10 AUDIO TITLE "Mean to Me" PERFORMER "Annette Hanshaw" SONGWRITER "Various" INDEX 01 00:00:00FILE "11 - Bom Shankar.wav" WAVE TRACK 11 AUDIO TITLE "Bom Shankar" PERFORMER "Masaladosa" SONGWRITER "Various" INDEX 01 00:00:00FILE "12 - If You Want the Rainbow.wav" WAVE TRACK 12 AUDIO TITLE "If You Want the Rainbow" PERFORMER "Annette Hanshaw" SONGWRITER "Various" INDEX 01 00:00:00FILE "13 - Intermission.wav" WAVE TRACK 13 AUDIO TITLE "Intermission" PERFORMER "Nik Phelps & The Sprocket Ensemble" SONGWRITER "Various" INDEX 01 00:00:00FILE "14 - Sita's String Theory.wav" WAVE TRACK 14 AUDIO TITLE "Sita's String Theory" PERFORMER "Todd Michaelson" SONGWRITER "Various" INDEX 01 00:00:00FILE "15 - Moanin' Low.wav" WAVE TRACK 15 AUDIO TITLE "Moanin' Low" PERFORMER "Annette Hanshaw" SONGWRITER "Various" INDEX 01 00:00:00FILE "16 - Agni Pariksh.wav" WAVE TRACK 16 AUDIO TITLE "Agni Pariksh" PERFORMER "Todd Michaelson" SONGWRITER "Various" INDEX 01 00:00:00FILE "17 - Am I Blue.wav" WAVE TRACK 17 AUDIO TITLE "Am I Blue" PERFORMER "Annette Hanshaw" SONGWRITER "Various" INDEX 01 00:00:00FILE "18 - Rama's Great.wav" WAVE TRACK 18 AUDIO TITLE "Rama's Great" PERFORMER "Rohan" SONGWRITER "Various" INDEX 01 00:00:00FILE "19 - Lover Come Back to Me.wav" WAVE TRACK 19 AUDIO TITLE "Lover Come Back to Me" PERFORMER "Annette Hanshaw" SONGWRITER "Various" INDEX 01 00:00:00FILE "20 - Sita Returns to Mother Earth.wav" WAVE TRACK 20 AUDIO TITLE "Sita Returns to Mother Earth" PERFORMER "Todd Michaelson" SONGWRITER "Various" INDEX 01 00:00:00FILE "21 - I've Got a Feelin' I'm Fallin'.wav" WAVE TRACK 21 AUDIO TITLE "I've Got a Feelin' I'm Fallin'" PERFORMER "Annette Hanshaw" SONGWRITER "Various" INDEX 01 00:00:00FILE "22 - Burnt Sugar.wav" WAVE TRACK 22 AUDIO TITLE "Burnt Sugar" PERFORMER "Rohan" SONGWRITER "Various" INDEX 01 00:00:00FILE "23 - The Song Is Ended.wav" WAVE TRACK 23 AUDIO TITLE "The Song Is Ended" PERFORMER "Annette Hanshaw" SONGWRITER "Various" INDEX 01 00:00:00



Трекер:  [ 08-Июл-2011 02:11 ]

  

Скачать .torrent

Размер .torrent файла 14 KB


Размер: 306 MB
Хэш (hash) релиза: a38d0a4e1f6b11ddd1de77508c5cd2040a23dcd8

Еще никто не оставлял запись к записи скачать торрент Сита поет блюз Sita Sings the Blues . Будь первым!

!Обратная связь