Скачать через торрент музыку Hindi Soundtracks - Various Artists - Музыка индийского кино - 4 Albums - 2004, APE бесплатно без регистрации torrent

Статистика раздачи
Размер:  1.71 GB   |    Зарегистрирован:  7 лет 4 месяца   |    .torrent скачан:  60 раз   |   
Раздают:  1  
   
загрузка...
 
Автор Сообщение

Galfimbul

avatar Galfimbul


Hindi Soundtracks (India)
Various Artists - Музыка индийского кино


Жанр: Soundtrack/Indian
Год выпуска дисков: 2004-2005
Производитель дисков: Россия
Аудио кодек: APE
Тип рипа: tracks+.cue
Битрейт аудио: lossless
Продолжительность: 04:27:00
Продолжительность: 54:26
Треклист:
1 - Anuradha Paudwal, Alka Yagnik - Ishq Bedardi (6:35)
2 - Sunidhi Chauhan, C21 - Oh! What A Babe (5:06)
3 - Krishna - Sach Hai Sach Hai (4:58)
4 - Blue, Shaan - Kya Maine Socha / One Love (3:28)
5 - Viva - Quiero (5:08)
6 - Svarnalatha, Krishna - Jannat Hai Yeh Zameen (4:38)
7 - Sonu Nigam, Shreya Goshal - Hadh Se Zyaada Sanam (5:58)
8 - Ritika Sahani - Oh! What A Babe (Techno Mix) (4:59)
9 - Sonu Nigam - Hadh Se Zyaada Sanam (Sad) (3:09)
10 - Shweta Shetty - Oh! What A Babe (Club Mix) (5:14)
11 - Aaroh, K.K. - Rakht (5:13)

Саундтрек к кинофильму "Магия крови" Rakht
2004 Super Cassettes Industries Limited,
2004 Bollywood Option
 
Exact Audio Copy V0.99 prebeta 5 from 4. May 2009

Отчёт EAC об извлечении, выполненном 2. марта 2010, 23:33

Саундтрек к кинофильму "Магия крови" Rakht / Музыка индийского кино. Выпуск 1 (LVCD-011)

Дисковод: PIONEER DVD-RW DVR-115D Adapter: 4 ID: 2

Режим чтения : ДостоверностьИспользование точного потока : ДаОтключение кэша аудио : ДаИспользование указателей C2 : Нет

Коррекция смещения при чтении : 48Способность читать области Lead-in и Lead-out : ДаЗаполнение пропущенных сэмплов тишиной : ДаУдаление блоков с тишиной в начале и конце : НетПри вычислениях CRC использовались нулевые сэмплы : ДаИнтерфейс : Установленный внешний ASPI-интерфейсОбработка зазоров : Добавлено к предыдущему треку

Выходной формат : Внутренние WAV-операцииФормат сэмплов : 44.100 Гц; 16 бит; стерео

TOC извлечённого CD

Трек | Старт | Длительность | Начальный сектор | Конечный сектор --------------------------------------------------------------------- 1 | 0:00.00 | 6:35.33 | 0 | 29657 2 | 6:35.33 | 5:06.21 | 29658 | 52628 3 | 11:41.54 | 4:58.21 | 52629 | 74999 4 | 16:40.00 | 3:28.36 | 75000 | 90635 5 | 20:08.36 | 5:08.70 | 90636 | 113805 6 | 25:17.31 | 4:38.24 | 113806 | 134679 7 | 29:55.55 | 5:58.64 | 134680 | 161593 8 | 35:54.44 | 4:59.52 | 161594 | 184070 9 | 40:54.21 | 3:09.68 | 184071 | 198313 10 | 44:04.14 | 5:14.16 | 198314 | 221879 11 | 49:18.30 | 5:13.26 | 221880 | 245380

Трек 1

Имя файла C:\!\01 - Anuradha Paudwal, Alka Yagnik - Ishq Bedardi.wav

Длина предзазора 0:00:02.00

Пиковый уровень 100.0 % Качество трека 99.9 % CRC копии 0AD09B2C Копирование... OK

Трек 2

Имя файла C:\!\02 - Sunidhi Chauhan, C21 - Oh! What A Babe.wav

Пиковый уровень 100.0 % Качество трека 100.0 % CRC копии BA844135 Копирование... OK

Трек 3

Имя файла C:\!\03 - Krishna - Sach Hai Sach Hai.wav

Пиковый уровень 92.8 % Качество трека 100.0 % CRC копии 1B1C6937 Копирование... OK

Трек 4

Имя файла C:\!\04 - Blue, Shaan - Kya Maine Socha - One Love.wav

Пиковый уровень 97.2 % Качество трека 100.0 % CRC копии 5EBB1D93 Копирование... OK

Трек 5

Имя файла C:\!\05 - Viva - Quiero.wav

Пиковый уровень 100.0 % Качество трека 100.0 % CRC копии E0BA1774 Копирование... OK

Трек 6

Имя файла C:\!\06 - Svarnalatha, Krishna - Jannat Hai Yeh Zameen.wav

Пиковый уровень 100.0 % Качество трека 100.0 % CRC копии 856A0E93 Копирование... OK

Трек 7

Имя файла C:\!\07 - Sonu Nigam, Shreya Goshal - Hadh Se Zyaada Sanam.wav

Пиковый уровень 93.7 % Качество трека 99.9 % CRC копии 9EF7BEC7 Копирование... OK

Трек 8

Имя файла C:\!\08 - Ritika Sahani - Oh! What A Babe (Techno Mix).wav

Пиковый уровень 99.9 % Качество трека 100.0 % CRC копии AAAB2696 Копирование... OK

Трек 9

Имя файла C:\!\09 - Sonu Nigam - Hadh Se Zyaada Sanam (Sad).wav

Пиковый уровень 100.0 % Качество трека 99.9 % CRC копии 010FEA00 Копирование... OK

Трек 10

Имя файла C:\!\10 - Shweta Shetty - Oh! What A Babe (Club Mix).wav

Пиковый уровень 100.0 % Качество трека 100.0 % CRC копии CE4E71B7 Копирование... OK

Трек 11

Имя файла C:\!\11 - Aaroh, K.K. - Rakht.wav

Пиковый уровень 100.0 % Качество трека 100.0 % CRC копии 2A58762F Копирование... OK

Ошибок не произошло

Конец отчёта
 
REM GENRE "Hindi Soundtrack"REM DATE 2004REM DISCID 900CC70BREM COMMENT "ExactAudioCopy v0.99pb5"PERFORMER "Саундтрек к кинофильму 'Магия крови' Rakht"TITLE "Музыка индийского кино. Выпуск 1 (LVCD-011)"FILE "01 - Anuradha Paudwal, Alka Yagnik - Ishq Bedardi.wav" WAVE TRACK 01 AUDIO TITLE "01 - Anuradha Paudwal, Alka Yagnik - Ishq Bedardi" PERFORMER "Саундтрек к кинофильму 'Магия крови' Rakht" INDEX 01 00:00:00FILE "02 - Sunidhi Chauhan, C21 - Oh! What A Babe.wav" WAVE TRACK 02 AUDIO TITLE "02 - Sunidhi Chauhan, C21 - Oh! What A Babe" PERFORMER "Саундтрек к кинофильму 'Магия крови' Rakht" INDEX 01 00:00:00FILE "03 - Krishna - Sach Hai Sach Hai.wav" WAVE TRACK 03 AUDIO TITLE "03 - Krishna - Sach Hai Sach Hai" PERFORMER "Саундтрек к кинофильму 'Магия крови' Rakht" INDEX 01 00:00:00FILE "04 - Blue, Shaan - Kya Maine Socha - One Love.wav" WAVE TRACK 04 AUDIO TITLE "04 - Blue, Shaan - Kya Maine Socha - One Love" PERFORMER "Саундтрек к кинофильму 'Магия крови' Rakht" INDEX 01 00:00:00FILE "05 - Viva - Quiero.wav" WAVE TRACK 05 AUDIO TITLE "05 - Viva - Quiero" PERFORMER "Саундтрек к кинофильму 'Магия крови' Rakht" INDEX 01 00:00:00FILE "06 - Svarnalatha, Krishna - Jannat Hai Yeh Zameen.wav" WAVE TRACK 06 AUDIO TITLE "06 - Svarnalatha, Krishna - Jannat Hai Yeh Zameen" PERFORMER "Саундтрек к кинофильму 'Магия крови' Rakht" INDEX 01 00:00:00FILE "07 - Sonu Nigam, Shreya Goshal - Hadh Se Zyaada Sanam.wav" WAVE TRACK 07 AUDIO TITLE "07 - Sonu Nigam, Shreya Goshal - Hadh Se Zyaada Sanam" PERFORMER "Саундтрек к кинофильму 'Магия крови' Rakht" INDEX 01 00:00:00FILE "08 - Ritika Sahani - Oh! What A Babe (Techno Mix).wav" WAVE TRACK 08 AUDIO TITLE "08 - Ritika Sahani - Oh! What A Babe (Techno Mix)" PERFORMER "Саундтрек к кинофильму 'Магия крови' Rakht" INDEX 01 00:00:00FILE "09 - Sonu Nigam - Hadh Se Zyaada Sanam (Sad).wav" WAVE TRACK 09 AUDIO TITLE "09 - Sonu Nigam - Hadh Se Zyaada Sanam (Sad)" PERFORMER "Саундтрек к кинофильму 'Магия крови' Rakht" INDEX 01 00:00:00FILE "10 - Shweta Shetty - Oh! What A Babe (Club Mix).wav" WAVE TRACK 10 AUDIO TITLE "10 - Shweta Shetty - Oh! What A Babe (Club Mix)" PERFORMER "Саундтрек к кинофильму 'Магия крови' Rakht" INDEX 01 00:00:00FILE "11 - Aaroh, K.K. - Rakht.wav" WAVE TRACK 11 AUDIO TITLE "11 - Aaroh, K.K. - Rakht" PERFORMER "Саундтрек к кинофильму 'Магия крови' Rakht" INDEX 01 00:00:00
 
AUDIOCHECKER v2.0 beta (build 457) - by Dester - opdester@freemail.hu~~~~~~~~~~~~~~~~~~~~~~~~~~~~~~~~~~-=== НЕ РЕДАКТИРУЙТЕ ЭТОТ ФАЙЛ! ===-

Путь: ...\2004 - Музыка индийского кино. Выпуск 1 (LVCD-011)

01 -=- 01 - Anuradha Paudwal, Alka Yagnik - Ishq Bedardi.wav -=- CDDA (100%)02 -=- 02 - Sunidhi Chauhan, C21 - Oh! What A Babe.wav -=- CDDA (99%)03 -=- 03 - Krishna - Sach Hai Sach Hai.wav -=- CDDA (100%)04 -=- 04 - Blue, Shaan - Kya Maine Socha - One Love.wav -=- CDDA (100%)05 -=- 05 - Viva - Quiero.wav -=- CDDA (100%)06 -=- 06 - Svarnalatha, Krishna - Jannat Hai Yeh Zameen.wav -=- CDDA (99%)07 -=- 07 - Sonu Nigam, Shreya Goshal - Hadh Se Zyaada Sanam.wav -=- CDDA (99%)08 -=- 08 - Ritika Sahani - Oh! What A Babe (Techno Mix).wav -=- CDDA (100%)09 -=- 09 - Sonu Nigam - Hadh Se Zyaada Sanam (Sad).wav -=- CDDA (100%)10 -=- 10 - Shweta Shetty - Oh! What A Babe (Club Mix).wav -=- CDDA (100%)11 -=- 11 - Aaroh, K.K. - Rakht.wav -=- CDDA (100%)

Сводка 99,73% CDDA

84242644
Продолжительность: 1:06:40
Треклист:
1 - Sonu Nigam, Shreya Goshal - Main Hoon Na (Main Hoon Na) (6:01)
2 - Udit Narayan, Abhijeet - Ek Kunwara Phir Gaya Mara (Masti) (4:38)
3 - Sonu Nigam, Anuradha Paudwal - Nach Punjaban Nachle (Muskaan) (6:56)
4 - Anu Malik, K.K., Shreya Goshal, Sunidhi Chauhan - Gori Gori (Main Hoon Na) (4:29)
5 - Shaan, Snaha Pant - Chori-Chori Chhora Chhori (Masti) (5:18)
6 - Badul Supriyo, Shreya Goshal - Dil Ke Badle Dil To (Zameer) (5:36)
7 - Anand Raaj Anand, Richa Sharma - Dil Teri Deewangi Mein (Kismat) (5:08)
8 - Udit Narayan, Alka Yagnik - Chunri Lehrai Ton (Insaaf) "The Justice" (5:15)
9 - Udit Narayan, Alka Yagnik - Tere Naam (Tere Naam) (6:34)
10 - Kumar Sanu, Alka Yagnik, Sapna Awasthi - Pardesi Pardesi (Zameer) (4:51)
11 - Udit Narayan, Anuradha Paudwal - Kabhie Jaage Soye (Muskaan) (6:22)
12 - Daler Mehndi, Kunal Ganjawala - Nachley (Lakeer) (5:32)
песни из фильмов:
Insaaf: The Justice - 8
Kismat - 7
Lakeer: Forbidden Lines - 12
Main Hoon Na - 1, 4
Masti - 2, 5
Muskaan - 3, 11
Tere Naam - 9
Zameer - 6, 10
2004 Super Cassettes Industries Limited,
2004 Bollywood Option
 
Exact Audio Copy V0.99 prebeta 5 from 4. May 2009

Отчёт EAC об извлечении, выполненном 3. марта 2010, 0:20

12 суперхитов 2004 года / Музыка индийского кино. Выпуск 2 (LVCD-010)

Дисковод: PIONEER DVD-RW DVR-115D Adapter: 4 ID: 2

Режим чтения : ДостоверностьИспользование точного потока : ДаОтключение кэша аудио : ДаИспользование указателей C2 : Нет

Коррекция смещения при чтении : 48Способность читать области Lead-in и Lead-out : ДаЗаполнение пропущенных сэмплов тишиной : ДаУдаление блоков с тишиной в начале и конце : НетПри вычислениях CRC использовались нулевые сэмплы : ДаИнтерфейс : Установленный внешний ASPI-интерфейсОбработка зазоров : Добавлено к предыдущему треку

Выходной формат : Внутренние WAV-операцииФормат сэмплов : 44.100 Гц; 16 бит; стерео

TOC извлечённого CD

Трек | Старт | Длительность | Начальный сектор | Конечный сектор --------------------------------------------------------------------- 1 | 0:00.00 | 6:01.42 | 0 | 27116 2 | 6:01.42 | 4:38.38 | 27117 | 48004 3 | 10:40.05 | 6:56.25 | 48005 | 79229 4 | 17:36.30 | 4:29.57 | 79230 | 99461 5 | 22:06.12 | 5:18.07 | 99462 | 123318 6 | 27:24.19 | 5:36.17 | 123319 | 148535 7 | 33:00.36 | 5:08.48 | 148536 | 171683 8 | 38:09.09 | 5:15.08 | 171684 | 195316 9 | 43:24.17 | 6:34.32 | 195317 | 224898 10 | 49:58.49 | 4:51.44 | 224899 | 246767 11 | 54:50.18 | 6:22.04 | 246768 | 275421 12 | 61:12.22 | 5:32.02 | 275422 | 300323

Трек 1

Имя файла C:\!\01 - Sonu Nigam, Shreya Goshal - Main Hoon Na (Main Hoon Na).wav

Длина предзазора 0:00:02.00

Пиковый уровень 70.7 % Качество трека 100.0 % CRC копии A8AB53E1 Копирование... OK

Трек 2

Имя файла C:\!\02 - Udit Narayan, Abhijeet - Ek Kunwara Phir Gaya Mara (Masti).wav

Пиковый уровень 62.2 % Качество трека 99.9 % CRC копии F4C3D0D8 Копирование... OK

Трек 3

Имя файла C:\!\03 - Sonu Nigam, Anuradha Paudwal - Nach Punjaban Nachle (Muskaan).wav

Пиковый уровень 64.4 % Качество трека 100.0 % CRC копии 739241C4 Копирование... OK

Трек 4

Имя файла C:\!\04 - Anu Malik, K.K., Shreya Goshal, Sunidhi Chauhan - Gori Gori (Main Hoon Na).wav

Пиковый уровень 88.9 % Качество трека 100.0 % CRC копии F574B1C8 Копирование... OK

Трек 5

Имя файла C:\!\05 - Shaan, Snaha Pant - Chori-Chori Chhora Chhori (Masti).wav

Пиковый уровень 55.5 % Качество трека 99.9 % CRC копии 960ACD3F Копирование... OK

Трек 6

Имя файла C:\!\06 - Badul Supriyo, Shreya Goshal - Dil Ke Badle Dil To (Zameer).wav

Пиковый уровень 62.3 % Качество трека 100.0 % CRC копии 2126FA6C Копирование... OK

Трек 7

Имя файла C:\!\07 - Anand Raaj Anand, Richa Sharma - Dil Teri Deewangi Mein (Kismat).wav

Пиковый уровень 47.3 % Качество трека 99.8 % CRC копии 6066EFD4 Копирование... OK

Трек 8

Имя файла C:\!\08 - Udit Narayan, Alka Yagnik - Chunri Lehrai Ton (Insaaf) 'The Justice'.wav

Пиковый уровень 90.3 % Качество трека 99.9 % CRC копии 9C536253 Копирование... OK

Трек 9

Имя файла C:\!\09 - Udit Narayan, Alka Yagnik - Tere Naam (Tere Naam).wav

Пиковый уровень 100.0 % Качество трека 100.0 % CRC копии A0E22EED Копирование... OK

Трек 10

Имя файла C:\!\10 - Kumar Sanu, Alka Yagnik, Sapna Awasthi - Pardesi Pardesi (Zameer).wav

Пиковый уровень 100.0 % Качество трека 100.0 % CRC копии A975BFFA Копирование... OK

Трек 11

Имя файла C:\!\11 - Udit Narayan, Anuradha Paudwal - Kabhie Jaage Soye (Muskaan).wav

Пиковый уровень 72.3 % Качество трека 100.0 % CRC копии 9A52846D Копирование... OK

Трек 12

Имя файла C:\!\12 - Daler Mehndi, Kunal Ganjawala - Nachley (Lakeer).wav

Пиковый уровень 73.1 % Качество трека 100.0 % CRC копии 2F9170ED Копирование... OK

Ошибок не произошло

Конец отчёта
 
REM GENRE HindiREM DATE 2004REM DISCID 9E0FA40CREM COMMENT "ExactAudioCopy v0.99pb5"PERFORMER "12 суперхитов 2004 года"TITLE "Музыка индийского кино. Выпуск 2 (LVCD-010)"FILE "01 - Sonu Nigam, Shreya Goshal - Main Hoon Na (Main Hoon Na).wav" WAVE TRACK 01 AUDIO TITLE "01 - Sonu Nigam, Shreya Goshal - Main Hoon Na (Main Hoon Na)" PERFORMER "12 суперхитов 2004 года" INDEX 01 00:00:00FILE "02 - Udit Narayan, Abhijeet - Ek Kunwara Phir Gaya Mara (Masti).wav" WAVE TRACK 02 AUDIO TITLE "02 - Udit Narayan, Abhijeet - Ek Kunwara Phir Gaya Mara (Masti)" PERFORMER "12 суперхитов 2004 года" INDEX 01 00:00:00FILE "03 - Sonu Nigam, Anuradha Paudwal - Nach Punjaban Nachle (Muskaan).wav" WAVE TRACK 03 AUDIO TITLE "03 - Sonu Nigam, Anuradha Paudwal - Nach Punjaban Nachle (Muskaan)" PERFORMER "12 суперхитов 2004 года" INDEX 01 00:00:00FILE "04 - Anu Malik, K.K., Shreya Goshal, Sunidhi Chauhan - Gori Gori (Main Hoon Na).wav" WAVE TRACK 04 AUDIO TITLE "04 - Anu Malik, K.K., Shreya Goshal, Sunidhi Chauhan - Gori Gori (Main Hoon Na)" PERFORMER "12 суперхитов 2004 года" INDEX 01 00:00:00FILE "05 - Shaan, Snaha Pant - Chori-Chori Chhora Chhori (Masti).wav" WAVE TRACK 05 AUDIO TITLE "05 - Shaan, Snaha Pant - Chori-Chori Chhora Chhori (Masti)" PERFORMER "12 суперхитов 2004 года" INDEX 01 00:00:00FILE "06 - Badul Supriyo, Shreya Goshal - Dil Ke Badle Dil To (Zameer).wav" WAVE TRACK 06 AUDIO TITLE "06 - Badul Supriyo, Shreya Goshal - Dil Ke Badle Dil To (Zameer) " PERFORMER "12 суперхитов 2004 года" INDEX 01 00:00:00FILE "07 - Anand Raaj Anand, Richa Sharma - Dil Teri Deewangi Mein (Kismat).wav" WAVE TRACK 07 AUDIO TITLE "07 - Anand Raaj Anand, Richa Sharma - Dil Teri Deewangi Mein (Kismat)" PERFORMER "12 суперхитов 2004 года" INDEX 01 00:00:00FILE "08 - Udit Narayan, Alka Yagnik - Chunri Lehrai Ton (Insaaf) 'The Justice'.wav" WAVE TRACK 08 AUDIO TITLE "08 - Udit Narayan, Alka Yagnik - Chunri Lehrai Ton (Insaaf) 'The Justice'" PERFORMER "12 суперхитов 2004 года" INDEX 01 00:00:00FILE "09 - Udit Narayan, Alka Yagnik - Tere Naam (Tere Naam).wav" WAVE TRACK 09 AUDIO TITLE "09 - Udit Narayan, Alka Yagnik - Tere Naam (Tere Naam) " PERFORMER "12 суперхитов 2004 года" INDEX 01 00:00:00FILE "10 - Kumar Sanu, Alka Yagnik, Sapna Awasthi - Pardesi Pardesi (Zameer).wav" WAVE TRACK 10 AUDIO TITLE "10 - Kumar Sanu, Alka Yagnik, Sapna Awasthi - Pardesi Pardesi (Zameer)" PERFORMER "12 суперхитов 2004 года" INDEX 01 00:00:00FILE "11 - Udit Narayan, Anuradha Paudwal - Kabhie Jaage Soye (Muskaan).wav" WAVE TRACK 11 AUDIO TITLE "11 - Udit Narayan, Anuradha Paudwal - Kabhie Jaage Soye (Muskaan)" PERFORMER "12 суперхитов 2004 года" INDEX 01 00:00:00FILE "12 - Daler Mehndi, Kunal Ganjawala - Nachley (Lakeer).wav" WAVE TRACK 12 AUDIO TITLE "12 - Daler Mehndi, Kunal Ganjawala - Nachley (Lakeer) " PERFORMER "12 суперхитов 2004 года" INDEX 01 00:00:00
 
AUDIOCHECKER v2.0 beta (build 457) - by Dester - opdester@freemail.hu~~~~~~~~~~~~~~~~~~~~~~~~~~~~~~~~~~-=== НЕ РЕДАКТИРУЙТЕ ЭТОТ ФАЙЛ! ===-

Путь: ...\2004 - Музыка индийского кино. Выпуск 2 (LVCD-010)

01 -=- 01 - Sonu Nigam, Shreya Goshal - Main Hoon Na (Main Hoon Na).wav -=- CDDA (100%)02 -=- 02 - Udit Narayan, Abhijeet - Ek Kunwara Phir Gaya Mara (Masti).wav -=- CDDA (100%)03 -=- 03 - Sonu Nigam, Anuradha Paudwal - Nach Punjaban Nachle (Muskaan).wav -=- CDDA (100%)04 -=- 04 - Anu Malik, K.K., Shreya Goshal, Sunidhi Chauhan - Gori Gori (Main Hoon Na).wav -=- CDDA (100%)05 -=- 05 - Shaan, Snaha Pant - Chori-Chori Chhora Chhori (Masti).wav -=- CDDA (100%)06 -=- 06 - Badul Supriyo, Shreya Goshal - Dil Ke Badle Dil To (Zameer).wav -=- CDDA (100%)07 -=- 07 - Anand Raaj Anand, Richa Sharma - Dil Teri Deewangi Mein (Kismat).wav -=- CDDA (100%)08 -=- 08 - Udit Narayan, Alka Yagnik - Chunri Lehrai Ton (Insaaf) 'The Justice'.wav -=- CDDA (100%)09 -=- 09 - Udit Narayan, Alka Yagnik - Tere Naam (Tere Naam).wav -=- CDDA (100%)10 -=- 10 - Kumar Sanu, Alka Yagnik, Sapna Awasthi - Pardesi Pardesi (Zameer).wav -=- CDDA (100%)11 -=- 11 - Udit Narayan, Anuradha Paudwal - Kabhie Jaage Soye (Muskaan).wav -=- CDDA (99%)12 -=- 12 - Daler Mehndi, Kunal Ganjawala - Nachley (Lakeer).wav -=- CDDA (100%)

Сводка 99,92% CDDA

234720084
Продолжительность: 1:14:06
Треклист:
1 - Vijay & Chorus - I Am A Disco Dancer (7:49)
2 - Parvati Khan - Jimmy Jimmy Jimmy Aaja (3:04)
3 - Usha Ulthup, Bappi Lahiri & Chorus - Auva Auva Koi Yahan Nache (5:28)
4 - Bappi Lahiri - Yaad Aa Raha Hai (6:22)
5 - Nandu Bhende & Chorus - Krishna Dharti Pe Aaja Tu (5:25)
6 - Kishore Kumar & Chorus - Ae Oh Aa Zara Mudke (5:58)
7 - Suresh Wadkar - Goron Ki Na Kalon Ki (2:46)
песни из фильма Disco Dancer (1982)
8 - Salma Agha - Dance Dance (5:37)
9 - Vijay Benedict - Kasam Paida Karne Wale Ki (6:24)
10 - Salma Agha - Come Closer (5:35)
11 - Salma Agha & Bappi Lahiri - Jeena Bhi Kya Hai Jeena (6:21)
песни из фильма Kasam Paida Karne Wale Ki (1985)
12 - Alisha Chinai - Tarzan My Tarzan (7:38)
13 - Bappi Lahiri & Alisha Chinai - Jee Le Le Jee Le Le (5:39)
песни из фильма Tarzan (1985)
2005 Vlad LISHBERGOV
2000 The Gramophone Company of India Ltd.
 
Exact Audio Copy V0.99 prebeta 5 from 4. May 2009

Отчёт EAC об извлечении, выполненном 3. марта 2010, 1:13

Танцор Диско и другие хиты Баппи Лахири / Музыка индийского кино. Выпуск 3 (LVCD-006)

Дисковод: PIONEER DVD-RW DVR-115D Adapter: 4 ID: 2

Режим чтения : ДостоверностьИспользование точного потока : ДаОтключение кэша аудио : ДаИспользование указателей C2 : Нет

Коррекция смещения при чтении : 48Способность читать области Lead-in и Lead-out : ДаЗаполнение пропущенных сэмплов тишиной : ДаУдаление блоков с тишиной в начале и конце : НетПри вычислениях CRC использовались нулевые сэмплы : ДаИнтерфейс : Установленный внешний ASPI-интерфейсОбработка зазоров : Добавлено к предыдущему треку

Выходной формат : Внутренние WAV-операцииФормат сэмплов : 44.100 Гц; 16 бит; стерео

TOC извлечённого CD

Трек | Старт | Длительность | Начальный сектор | Конечный сектор --------------------------------------------------------------------- 1 | 0:00.00 | 7:49.55 | 0 | 35229 2 | 7:49.55 | 3:04.20 | 35230 | 49049 3 | 10:54.00 | 5:28.60 | 49050 | 73709 4 | 16:22.60 | 6:22.10 | 73710 | 102369 5 | 22:44.70 | 5:25.40 | 102370 | 126784 6 | 28:10.35 | 5:58.35 | 126785 | 153669 7 | 34:08.70 | 2:46.20 | 153670 | 166139 8 | 36:55.15 | 5:37.30 | 166140 | 191444 9 | 42:32.45 | 6:24.12 | 191445 | 220256 10 | 48:56.57 | 5:35.20 | 220257 | 245401 11 | 54:32.02 | 6:21.43 | 245402 | 274019 12 | 60:53.45 | 7:38.72 | 274020 | 308441 13 | 68:32.42 | 5:39.23 | 308442 | 333889

Трек 1

Имя файла C:\!\01 - Vijay & Chorus - I Am A Disco Dancer.wav

Длина предзазора 0:00:02.00

Пиковый уровень 99.7 % Качество трека 100.0 % CRC копии D2A50C89 Копирование... OK

Трек 2

Имя файла C:\!\02 - Parvati Khan - Jimmy Jimmy Jimmy Aaja.wav

Длина предзазора 0:00:02.00

Пиковый уровень 93.5 % Качество трека 99.9 % CRC копии C45D43EB Копирование... OK

Трек 3

Имя файла C:\!\03 - Usha Ulthup, Bappi Lahiri & Chorus - Auva Auva Koi Yahan Nache.wav

Длина предзазора 0:00:01.73

Пиковый уровень 93.2 % Качество трека 100.0 % CRC копии 4EFD6A9F Копирование... OK

Трек 4

Имя файла C:\!\04 - Bappi Lahiri - Yaad Aa Raha Hai.wav

Длина предзазора 0:00:01.48

Пиковый уровень 91.9 % Качество трека 100.0 % CRC копии 7995ADFF Копирование... OK

Трек 5

Имя файла C:\!\05 - Nandu Bhende & Chorus - Krishna Dharti Pe Aaja Tu.wav

Длина предзазора 0:00:02.15

Пиковый уровень 83.9 % Качество трека 100.0 % CRC копии 71A0A9E4 Копирование... OK

Трек 6

Имя файла C:\!\06 - Kishore Kumar & Chorus - Ae Oh Aa Zara Mudke.wav

Длина предзазора 0:00:02.48

Пиковый уровень 100.0 % Качество трека 100.0 % CRC копии DDC1439B Копирование... OK

Трек 7

Имя файла C:\!\07 - Suresh Wadkar - Goron Ki Na Kalon Ki.wav

Длина предзазора 0:00:01.38

Пиковый уровень 89.3 % Качество трека 100.0 % CRC копии 6D70A5AE Копирование... OK

Трек 8

Имя файла C:\!\08 - Salma Agha - Dance Dance.wav

Длина предзазора 0:00:01.73

Пиковый уровень 72.4 % Качество трека 100.0 % CRC копии 2B8753ED Копирование... OK

Трек 9

Имя файла C:\!\09 - Vijay Benedict - Kasam Paida Karne Wale Ki.wav

Длина предзазора 0:00:01.43

Пиковый уровень 93.9 % Качество трека 99.9 % CRC копии 5EC4E7B8 Копирование... OK

Трек 10

Имя файла C:\!\10 - Salma Agha - Come Closer.wav

Длина предзазора 0:00:01.52

Пиковый уровень 75.2 % Качество трека 100.0 % CRC копии B3950640 Копирование... OK

Трек 11

Имя файла C:\!\11 - Salma Agha & Bappi Lahiri - Jeena Bhi Kya Hai Jeena.wav

Длина предзазора 0:00:03.32

Пиковый уровень 72.8 % Качество трека 100.0 % CRC копии B2919119 Копирование... OK

Трек 12

Имя файла C:\!\12 - Alisha Chinai - Tarzan My Tarzan.wav

Длина предзазора 0:00:02.68

Пиковый уровень 70.2 % Качество трека 100.0 % CRC копии 87044466 Копирование... OK

Трек 13

Имя файла C:\!\13 - Bappi Lahiri & Alisha Chinai - Jee Le Le Jee Le Le.wav

Длина предзазора 0:00:01.45

Пиковый уровень 74.9 % Качество трека 99.8 % CRC копии 11E2617F Копирование... OK

Ошибок не произошло

Конец отчёта
 
REM GENRE HindiREM DATE 2005REM DISCID BC11630DREM COMMENT "ExactAudioCopy v0.99pb5"PERFORMER "Танцор Диско и другие хиты Баппи Лахири"TITLE "Музыка индийского кино. Выпуск 3 (LVCD-006)"FILE "01 - Vijay & Chorus - I Am A Disco Dancer.wav" WAVE TRACK 01 AUDIO TITLE "01 - Vijay & Chorus - I Am A Disco Dancer" PERFORMER "Танцор Диско и другие хиты Баппи Лахири" INDEX 01 00:00:00FILE "02 - Parvati Khan - Jimmy Jimmy Jimmy Aaja.wav" WAVE TRACK 02 AUDIO TITLE "02 - Parvati Khan - Jimmy Jimmy Jimmy Aaja" PERFORMER "Танцор Диско и другие хиты Баппи Лахири" INDEX 01 00:00:00FILE "03 - Usha Ulthup, Bappi Lahiri & Chorus - Auva Auva Koi Yahan Nache.wav" WAVE TRACK 03 AUDIO TITLE "03 - Usha Ulthup, Bappi Lahiri & Chorus - Auva Auva Koi Yahan Nache" PERFORMER "Танцор Диско и другие хиты Баппи Лахири" INDEX 01 00:00:00FILE "04 - Bappi Lahiri - Yaad Aa Raha Hai.wav" WAVE TRACK 04 AUDIO TITLE "04 - Bappi Lahiri - Yaad Aa Raha Hai" PERFORMER "Танцор Диско и другие хиты Баппи Лахири" INDEX 01 00:00:00FILE "05 - Nandu Bhende & Chorus - Krishna Dharti Pe Aaja Tu.wav" WAVE TRACK 05 AUDIO TITLE "05 - Nandu Bhende & Chorus - Krishna Dharti Pe Aaja Tu" PERFORMER "Танцор Диско и другие хиты Баппи Лахири" INDEX 01 00:00:00FILE "06 - Kishore Kumar & Chorus - Ae Oh Aa Zara Mudke.wav" WAVE TRACK 06 AUDIO TITLE "06 - Kishore Kumar & Chorus - Ae Oh Aa Zara Mudke" PERFORMER "Танцор Диско и другие хиты Баппи Лахири" INDEX 01 00:00:00FILE "07 - Suresh Wadkar - Goron Ki Na Kalon Ki.wav" WAVE TRACK 07 AUDIO TITLE "07 - Suresh Wadkar - Goron Ki Na Kalon Ki" PERFORMER "Танцор Диско и другие хиты Баппи Лахири" INDEX 01 00:00:00FILE "08 - Salma Agha - Dance Dance.wav" WAVE TRACK 08 AUDIO TITLE "08 - Salma Agha - Dance Dance" PERFORMER "Танцор Диско и другие хиты Баппи Лахири" INDEX 01 00:00:00FILE "09 - Vijay Benedict - Kasam Paida Karne Wale Ki.wav" WAVE TRACK 09 AUDIO TITLE "09 - Vijay Benedict - Kasam Paida Karne Wale Ki " PERFORMER "Танцор Диско и другие хиты Баппи Лахири" INDEX 01 00:00:00FILE "10 - Salma Agha - Come Closer.wav" WAVE TRACK 10 AUDIO TITLE "10 - Salma Agha - Come Closer" PERFORMER "Танцор Диско и другие хиты Баппи Лахири" INDEX 01 00:00:00FILE "11 - Salma Agha & Bappi Lahiri - Jeena Bhi Kya Hai Jeena.wav" WAVE TRACK 11 AUDIO TITLE "11 - Salma Agha & Bappi Lahiri - Jeena Bhi Kya Hai Jeena" PERFORMER "Танцор Диско и другие хиты Баппи Лахири" INDEX 01 00:00:00FILE "12 - Alisha Chinai - Tarzan My Tarzan.wav" WAVE TRACK 12 AUDIO TITLE "12 - Alisha Chinai - Tarzan My Tarzan" PERFORMER "Танцор Диско и другие хиты Баппи Лахири" INDEX 01 00:00:00FILE "13 - Bappi Lahiri & Alisha Chinai - Jee Le Le Jee Le Le.wav" WAVE TRACK 13 AUDIO TITLE "13 - Bappi Lahiri & Alisha Chinai - Jee Le Le Jee Le Le" PERFORMER "Танцор Диско и другие хиты Баппи Лахири" INDEX 01 00:00:00
 
AUDIOCHECKER v2.0 beta (build 457) - by Dester - opdester@freemail.hu~~~~~~~~~~~~~~~~~~~~~~~~~~~~~~~~~~-=== НЕ РЕДАКТИРУЙТЕ ЭТОТ ФАЙЛ! ===-

Путь: ...\2005 - Музыка индийского кино. Выпуск 3 (LVCD-006)

01 -=- 01 - Vijay & Chorus - I Am A Disco Dancer.wav -=- CDDA (100%)02 -=- 02 - Parvati Khan - Jimmy Jimmy Jimmy Aaja.wav -=- CDDA (100%)03 -=- 03 - Usha Ulthup, Bappi Lahiri & Chorus - Auva Auva Koi Yahan Nache.wav -=- CDDA (100%)04 -=- 04 - Bappi Lahiri - Yaad Aa Raha Hai.wav -=- CDDA (100%)05 -=- 05 - Nandu Bhende & Chorus - Krishna Dharti Pe Aaja Tu.wav -=- CDDA (99%)06 -=- 06 - Kishore Kumar & Chorus - Ae Oh Aa Zara Mudke.wav -=- CDDA (100%)07 -=- 07 - Suresh Wadkar - Goron Ki Na Kalon Ki.wav -=- CDDA (100%)08 -=- 08 - Salma Agha - Dance Dance.wav -=- CDDA (100%)09 -=- 09 - Vijay Benedict - Kasam Paida Karne Wale Ki.wav -=- CDDA (100%)10 -=- 10 - Salma Agha - Come Closer.wav -=- CDDA (99%)11 -=- 11 - Salma Agha & Bappi Lahiri - Jeena Bhi Kya Hai Jeena.wav -=- CDDA (100%)12 -=- 12 - Alisha Chinai - Tarzan My Tarzan.wav -=- CDDA (100%)13 -=- 13 - Bappi Lahiri & Alisha Chinai - Jee Le Le Jee Le Le.wav -=- CDDA (100%)

Сводка 99,85% CDDA

33806612
[spoiler=2005 - Музыка индийского кино. Выпуск 4 (LVCD-005)]
Продолжительность: 1:12:30
Треклист:
1 - Lata Mangeshkar, Kumar Sanu - Tujhe Dekha To (5:04)
2 - Udit Narayan - Ruk Ja O Dil Deewane (5:13)
3 - Lata Mangeshkar, Udit Narayan - Mehndi Laga Ke Rakhna (4:50)
4 - Lata Mangeshkar - Mere Khwabon Mein (4:17)
5 - Asha Bhosle, Abhijeet - Zara Sa Jhoom Loom Main (5:54)
6 - Pamela Chopra, Manpreet Kaur - Ghar Aaja Pardesi (7:31)
7 - Lata Mangeshkar, Udit Narayan - Ho Gaya Hai Tujhko To Pyar Sajna (5:50)
8 - Lata Mangeshkar, Kishore Kumar - Ab Chahe Maa Roothe Ya Baba (Daag) (5:33)
9 - Lata Mangeshkar, Kishore Kumar - Tere Chehere Se Nazar Nahin Hat-Thi (Kabhi Kabhie) (5:03)
10 - Lata Mangeshkar, Kishore Kuma, Chorus - Dekha Ek Khwab (Silsila) (5:23)
11 - Lata Mangeshkar - Mere Hathon Mein Nau-Nau Churiyan (Chandni) (5:47)
12 - Lata Mangeshkar, Illa Arun Chorus - Chuidyan Khanak Gayeen (Lamhe) (6:00)
13 - Lata Mangeshkar, Udit Narayan, Chorus - Tu Mere Samne (Darr) (6:05)
песни из фильмов:
Непохищенная невеста - 1-7
Daag - 8
Kabhi Kabhie - 9
Silsila - 10
Chandni - 11
Lamhe - 12
Darr - 13
2005 Vlad LISHBERGOV
1995 The Gramophone Company of India Ltd.
 
Exact Audio Copy V0.99 prebeta 5 from 4. May 2009

Отчёт EAC об извлечении, выполненном 3. марта 2010, 6:55

Саундтрек кинофильма "Похищенная невеста" / Музыка индийского кино. Выпуск 4 (LVCD-005)

Дисковод: PIONEER DVD-RW DVR-115D Adapter: 4 ID: 2

Режим чтения : ДостоверностьИспользование точного потока : ДаОтключение кэша аудио : ДаИспользование указателей C2 : Нет

Коррекция смещения при чтении : 48Способность читать области Lead-in и Lead-out : ДаЗаполнение пропущенных сэмплов тишиной : ДаУдаление блоков с тишиной в начале и конце : НетПри вычислениях CRC использовались нулевые сэмплы : ДаИнтерфейс : Установленный внешний ASPI-интерфейсОбработка зазоров : Добавлено к предыдущему треку

Выходной формат : Внутренние WAV-операцииФормат сэмплов : 44.100 Гц; 16 бит; стерео

TOC извлечённого CD

Трек | Старт | Длительность | Начальный сектор | Конечный сектор --------------------------------------------------------------------- 1 | 0:00.00 | 5:04.30 | 0 | 22829 2 | 5:04.30 | 5:13.22 | 22830 | 46326 3 | 10:17.52 | 4:50.30 | 46327 | 68106 4 | 15:08.07 | 4:17.20 | 68107 | 87401 5 | 19:25.27 | 5:54.08 | 87402 | 113959 6 | 25:19.35 | 7:31.07 | 113960 | 147791 7 | 32:50.42 | 5:50.10 | 147792 | 174051 8 | 38:40.52 | 5:33.70 | 174052 | 199096 9 | 44:14.47 | 5:03.53 | 199097 | 221874 10 | 49:18.25 | 5:23.40 | 221875 | 246139 11 | 54:41.65 | 5:47.57 | 246140 | 272221 12 | 60:29.47 | 6:00.13 | 272222 | 299234 13 | 66:29.60 | 6:05.37 | 299235 | 326646

Трек 1

Имя файла C:\!\01 - Lata Mangeshkar, Kumar Sanu - Tujhe Dekha To.wav

Длина предзазора 0:00:02.00

Пиковый уровень 86.9 % Качество трека 100.0 % CRC копии 48A404D9 Копирование... OK

Трек 2

Имя файла C:\!\02 - Udit Narayan - Ruk Ja O Dil Deewane.wav

Длина предзазора 0:00:03.65

Пиковый уровень 100.0 % Качество трека 100.0 % CRC копии 7F443C81 Копирование... OK

Трек 3

Имя файла C:\!\03 - Lata Mangeshkar, Udit Narayan - Mehndi Laga Ke Rakhna.wav

Длина предзазора 0:00:04.00

Пиковый уровень 100.0 % Качество трека 100.0 % CRC копии 3E4F8F91 Копирование... OK

Трек 4

Имя файла C:\!\04 - Lata Mangeshkar - Mere Khwabon Mein.wav

Длина предзазора 0:00:03.67

Пиковый уровень 100.0 % Качество трека 100.0 % CRC копии 6BE24D39 Копирование... OK

Трек 5

Имя файла C:\!\05 - Asha Bhosle, Abhijeet - Zara Sa Jhoom Loom Main.wav

Длина предзазора 0:00:03.40

Пиковый уровень 85.4 % Качество трека 100.0 % CRC копии 35C03B15 Копирование... OK

Трек 6

Имя файла C:\!\06 - Pamela Chopra, Manpreet Kaur - Ghar Aaja Pardesi.wav

Длина предзазора 0:00:03.60

Пиковый уровень 81.6 % Качество трека 100.0 % CRC копии A448BB24 Копирование... OK

Трек 7

Имя файла C:\!\07 - Lata Mangeshkar, Udit Narayan - Ho Gaya Hai Tujhko To Pyar Sajna.wav

Длина предзазора 0:00:03.27

Пиковый уровень 89.0 % Качество трека 100.0 % CRC копии 107C7EA2 Копирование... OK

Трек 8

Имя файла C:\!\08 - Lata Mangeshkar, Kishore Kumar - Ab Chahe Maa Roothe Ya Baba (Daag).wav

Длина предзазора 0:00:03.65

Пиковый уровень 100.0 % Качество трека 100.0 % CRC копии F49EBDD0 Копирование... OK

Трек 9

Имя файла C:\!\09 - Lata Mangeshkar, Kishore Kumar - Tere Chehere Se Nazar Nahin Hat-Thi (Kabhi Kabhie).wav

Длина предзазора 0:00:04.30

Пиковый уровень 100.0 % Качество трека 100.0 % CRC копии 8BC294B0 Копирование... OK

Трек 10

Имя файла C:\!\10 - Lata Mangeshkar, Kishore Kuma, Chorus - Dekha Ek Khwab (Silsila).wav

Длина предзазора 0:00:03.05

Пиковый уровень 91.2 % Качество трека 100.0 % CRC копии 62975399 Копирование... OK

Трек 11

Имя файла C:\!\11 - Lata Mangeshkar - Mere Hathon Mein Nau-Nau Churiyan (Chandni).wav

Длина предзазора 0:00:02.35

Пиковый уровень 91.9 % Качество трека 100.0 % CRC копии DD385D7C Копирование... OK

Трек 12

Имя файла C:\!\12 - Lata Mangeshkar, Illa Arun Chorus - Chuidyan Khanak Gayeen (Lamhe).wav

Длина предзазора 0:00:04.07

Пиковый уровень 95.5 % Качество трека 100.0 % CRC копии E49CD979 Копирование... OK

Трек 13

Имя файла C:\!\13 - Lata Mangeshkar, Udit Narayan, Chorus - Tu Mere Samne (Darr).wav

Длина предзазора 0:00:04.48

Пиковый уровень 90.0 % Качество трека 99.8 % CRC копии DFBCA7D9 Копирование... OK

Ошибок не произошло

Конец отчёта
 
REM GENRE SoundtrackREM DATE 2005REM DISCID B011030DREM COMMENT "ExactAudioCopy v0.99pb5"PERFORMER "Саундтрек кинофильма 'Похищенная невеста'"TITLE "Музыка индийского кино. Выпуск 4 (LVCD-005)"FILE "01 - Lata Mangeshkar, Kumar Sanu - Tujhe Dekha To.wav" WAVE TRACK 01 AUDIO TITLE "01 - Lata Mangeshkar, Kumar Sanu - Tujhe Dekha To" PERFORMER "Саундтрек кинофильма 'Похищенная невеста'" INDEX 01 00:00:00FILE "02 - Udit Narayan - Ruk Ja O Dil Deewane.wav" WAVE TRACK 02 AUDIO TITLE "02 - Udit Narayan - Ruk Ja O Dil Deewane" PERFORMER "Саундтрек кинофильма 'Похищенная невеста'" INDEX 01 00:00:00FILE "03 - Lata Mangeshkar, Udit Narayan - Mehndi Laga Ke Rakhna.wav" WAVE TRACK 03 AUDIO TITLE "03 - Lata Mangeshkar, Udit Narayan - Mehndi Laga Ke Rakhna" PERFORMER "Саундтрек кинофильма 'Похищенная невеста'" INDEX 01 00:00:00FILE "04 - Lata Mangeshkar - Mere Khwabon Mein.wav" WAVE TRACK 04 AUDIO TITLE "04 - Lata Mangeshkar - Mere Khwabon Mein" PERFORMER "Саундтрек кинофильма 'Похищенная невеста'" INDEX 01 00:00:00FILE "05 - Asha Bhosle, Abhijeet - Zara Sa Jhoom Loom Main.wav" WAVE TRACK 05 AUDIO TITLE "05 - Asha Bhosle, Abhijeet - Zara Sa Jhoom Loom Main" PERFORMER "Саундтрек кинофильма 'Похищенная невеста'" INDEX 01 00:00:00FILE "06 - Pamela Chopra, Manpreet Kaur - Ghar Aaja Pardesi.wav" WAVE TRACK 06 AUDIO TITLE "06 - Pamela Chopra, Manpreet Kaur - Ghar Aaja Pardesi" PERFORMER "Саундтрек кинофильма 'Похищенная невеста'" INDEX 01 00:00:00FILE "07 - Lata Mangeshkar, Udit Narayan - Ho Gaya Hai Tujhko To Pyar Sajna.wav" WAVE TRACK 07 AUDIO TITLE "07 - Lata Mangeshkar, Udit Narayan - Ho Gaya Hai Tujhko To Pyar Sajna" PERFORMER "Саундтрек кинофильма 'Похищенная невеста'" INDEX 01 00:00:00FILE "08 - Lata Mangeshkar, Kishore Kumar - Ab Chahe Maa Roothe Ya Baba (Daag).wav" WAVE TRACK 08 AUDIO TITLE "08 - Lata Mangeshkar, Kishore Kumar - Ab Chahe Maa Roothe Ya Baba (Daag)" PERFORMER "Саундтрек кинофильма 'Похищенная невеста'" INDEX 01 00:00:00FILE "09 - Lata Mangeshkar, Kishore Kumar - Tere Chehere Se Nazar Nahin Hat-Thi (Kabhi Kabhie).wav" WAVE TRACK 09 AUDIO TITLE "09 - Lata Mangeshkar, Kishore Kumar - Tere Chehere Se Nazar Nahin Hat-Thi (Ka..." PERFORMER "Саундтрек кинофильма 'Похищенная невеста'" INDEX 01 00:00:00FILE "10 - Lata Mangeshkar, Kishore Kuma, Chorus - Dekha Ek Khwab (Silsila).wav" WAVE TRACK 10 AUDIO TITLE "10 - Lata Mangeshkar, Kishore Kuma, Chorus - Dekha Ek Khwab (Silsila)" PERFORMER "Саундтрек кинофильма 'Похищенная невеста'" INDEX 01 00:00:00FILE "11 - Lata Mangeshkar - Mere Hathon Mein Nau-Nau Churiyan (Chandni).wav" WAVE TRACK 11 AUDIO TITLE "11 - Lata Mangeshkar - Mere Hathon Mein Nau-Nau Churiyan (Chandni)" PERFORMER "Саундтрек кинофильма 'Похищенная невеста'" INDEX 01 00:00:00FILE "12 - Lata Mangeshkar, Illa Arun Chorus - Chuidyan Khanak Gayeen (Lamhe).wav" WAVE TRACK 12 AUDIO TITLE "12 - Lata Mangeshkar, Illa Arun Chorus - Chuidyan Khanak Gayeen (Lamhe)" PERFORMER "Саундтрек кинофильма 'Похищенная невеста'" INDEX 01 00:00:00FILE "13 - Lata Mangeshkar, Udit Narayan, Chorus - Tu Mere Samne (Darr).wav" WAVE TRACK 13 AUDIO TITLE "13 - Lata Mangeshkar, Udit Narayan, Chorus - Tu Mere Samne (Darr)" PERFORMER "Саундтрек кинофильма 'Похищенная невеста'" INDEX 01 00:00:00
 
AUDIOCHECKER v2.0 beta (build 457) - by Dester - opdester@freemail.hu~~~~~~~~~~~~~~~~~~~~~~~~~~~~~~~~~~-=== НЕ РЕДАКТИРУЙТЕ ЭТОТ ФАЙЛ! ===-

Путь: ...\2005 - Музыка индийского кино. Выпуск 4 (LVCD-005)

01 -=- 01 - Lata Mangeshkar, Kumar Sanu - Tujhe Dekha To.wav -=- CDDA (100%)02 -=- 02 - Udit Narayan - Ruk Ja O Dil Deewane.wav -=- CDDA (100%)03 -=- 03 - Lata Mangeshkar, Udit Narayan - Mehndi Laga Ke Rakhna.wav -=- CDDA (100%)04 -=- 04 - Lata Mangeshkar - Mere Khwabon Mein.wav -=- CDDA (99%)05 -=- 05 - Asha Bhosle, Abhijeet - Zara Sa Jhoom Loom Main.wav -=- CDDA (100%)06 -=- 06 - Pamela Chopra, Manpreet Kaur - Ghar Aaja Pardesi.wav -=- CDDA (100%)07 -=- 07 - Lata Mangeshkar, Udit Narayan - Ho Gaya Hai Tujhko To Pyar Sajna.wav -=- CDDA (100%)08 -=- 08 - Lata Mangeshkar, Kishore Kumar - Ab Chahe Maa Roothe Ya Baba (Daag).wav -=- CDDA (100%)09 -=- 09 - Lata Mangeshkar, Kishore Kumar - Tere Chehere Se Nazar Nahin Hat-Thi (Kabhi Kabhie).wav -=- CDDA (99%)10 -=- 10 - Lata Mangeshkar, Kishore Kuma, Chorus - Dekha Ek Khwab (Silsila).wav -=- CDDA (100%)11 -=- 11 - Lata Mangeshkar - Mere Hathon Mein Nau-Nau Churiyan (Chandni).wav -=- CDDA (100%)12 -=- 12 - Lata Mangeshkar, Illa Arun Chorus - Chuidyan Khanak Gayeen (Lamhe).wav -=- CDDA (99%)13 -=- 13 - Lata Mangeshkar, Udit Narayan, Chorus - Tu Mere Samne (Darr).wav -=- CDDA (100%)

Сводка 99,77% CDDA

10205092


Трекер:  [ 08-Июл-2011 02:10 ]

  

Скачать .torrent

Размер .torrent файла 23 KB


Размер: 1.71 GB
Хэш (hash) релиза: 19dbb182648b864422321cde1483ef5523fcbfbd

Еще никто не оставлял запись к записи скачать торрент Hindi Soundtracks - Various Artists - Музыка индийского кино - 4 Albums - 2004, APE . Будь первым!

!Обратная связь