Скачать через торрент музыку Cirque Du Soleil - Zumanity - 2004, FLAC бесплатно без регистрации torrent

Статистика раздачи
Размер:  451 MB   |    Зарегистрирован:  7 лет 1 месяц   |    .torrent скачан:  45 раз   |   
Раздают:  1  
   
загрузка...
 
Автор Сообщение

Galfimbul

avatar Galfimbul


Cirque Du Soleil - Zumanity

Жанр: Soundtrack
Год выпуска диска: 2004
Производитель диска: Canada
Аудио кодек: FLAC
Тип рипа: tracks+.cue
Битрейт аудио: lossless
Продолжительность: 1:03:38.827
Трэклист:
01 - Mio Bello Bello Amore
02 - Entree
03 - En Zum
04 - Wind
05 - Another Man
06 - First Taste
07 - Do It Again
08 - Water Bowl (Awakening)
09 - The Good Thing
10 - Tickle Tango
11 - Into Me
12 - Fugare
13 - Meditation
14 - Piece of Heaven
15 - Zum Astra
16 - Mangora En Zum
17 - Per Sempre
18 - Bello Amore
 
Exact Audio Copy V0.99 prebeta 5 from 4. May 2009

EAC extraction logfile from 12. May 2009, 23:14

Cirque du Soleil / Zumanity

Used drive : ATAPI iHAS220 6 Adapter: 3 ID: 0

Read mode : SecureUtilize accurate stream : YesDefeat audio cache : YesMake use of C2 pointers : No

Read offset correction : 6Overread into Lead-In and Lead-Out : NoFill up missing offset samples with silence : YesDelete leading and trailing silent blocks : NoNull samples used in CRC calculations : YesUsed interface : Native Win32 interface for Win NT & 2000Gap handling : Appended to previous track

Used output format : User Defined EncoderSelected bitrate : 1024 kBit/sQuality : HighAdd ID3 tag : NoCommand line compressor : D:\Program Files\Exact Audio Copy\FLAC\FLAC.EXEAdditional command line options : -6 -V -T "ARTIST=%a" -T "TITLE=%t" -T "ALBUM=%g" -T "DATE=%y" -T "TRACKNUMBER=%n" -T "GENRE=%m" -T "COMMENT=%e" %s -o %d

TOC of the extracted CD

Track | Start | Length | Start sector | End sector --------------------------------------------------------- 1 | 0:00.00 | 2:58.17 | 0 | 13366 2 | 2:58.17 | 0:31.35 | 13367 | 15726 3 | 3:29.52 | 1:30.38 | 15727 | 22514 4 | 5:00.15 | 3:24.70 | 22515 | 37884 5 | 8:25.10 | 4:39.57 | 37885 | 58866 6 | 13:04.67 | 0:31.45 | 58867 | 61236 7 | 13:36.37 | 4:40.53 | 61237 | 82289 8 | 18:17.15 | 5:23.15 | 82290 | 106529 9 | 23:40.30 | 4:38.70 | 106530 | 127449 10 | 28:19.25 | 2:29.05 | 127450 | 138629 11 | 30:48.30 | 4:34.47 | 138630 | 159226 12 | 35:23.02 | 1:44.53 | 159227 | 167079 13 | 37:07.55 | 1:20.45 | 167080 | 173124 14 | 38:28.25 | 4:51.25 | 173125 | 194974 15 | 43:19.50 | 4:14.12 | 194975 | 214036 16 | 47:33.62 | 4:51.55 | 214037 | 235916 17 | 52:25.42 | 6:21.10 | 235917 | 264501 18 | 58:46.52 | 4:52.10 | 264502 | 286411

Track 1

Filename D:\Capture\Zumanity - 2004\01 - Mio Bello Bello Amore.wav

Pre-gap length 0:00:02.00

Peak level 78.2 % Track quality 100.0 % Test CRC 6B9210E4 Copy CRC 6B9210E4 Accurately ripped (confidence 4) [DC6C0ACC] Copy OK

Track 2

Filename D:\Capture\Zumanity - 2004\02 - Entree.wav

Pre-gap length 0:00:01.37

Peak level 40.5 % Track quality 100.0 % Test CRC F6E3C342 Copy CRC F6E3C342 Accurately ripped (confidence 4) [3A96DDD6] Copy OK

Track 3

Filename D:\Capture\Zumanity - 2004\03 - En Zum.wav

Peak level 89.0 % Track quality 100.0 % Test CRC 96FA3D6E Copy CRC 96FA3D6E Accurately ripped (confidence 4) [0A3D25BB] Copy OK

Track 4

Filename D:\Capture\Zumanity - 2004\04 - Wind.wav

Peak level 92.4 % Track quality 100.0 % Test CRC 76684F9B Copy CRC 76684F9B Accurately ripped (confidence 4) [09029D7A] Copy OK

Track 5

Filename D:\Capture\Zumanity - 2004\05 - Another Man.wav

Peak level 99.9 % Track quality 100.0 % Test CRC C66341BE Copy CRC C66341BE Accurately ripped (confidence 3) [49A5AC5C] Copy OK

Track 6

Filename D:\Capture\Zumanity - 2004\06 - First Taste.wav

Pre-gap length 0:00:01.40

Peak level 91.3 % Track quality 100.0 % Test CRC 4608661F Copy CRC 4608661F Accurately ripped (confidence 4) [099C3A10] Copy OK

Track 7

Filename D:\Capture\Zumanity - 2004\07 - Do It Again.wav

Peak level 95.1 % Track quality 100.0 % Test CRC BEBDCCA6 Copy CRC BEBDCCA6 Accurately ripped (confidence 4) [5BCFADB8] Copy OK

Track 8

Filename D:\Capture\Zumanity - 2004\08 - Water Bowl (Awakening).wav

Peak level 99.9 % Track quality 100.0 % Test CRC 3E1041FC Copy CRC 3E1041FC Accurately ripped (confidence 4) [3D6FD0C6] Copy OK

Track 9

Filename D:\Capture\Zumanity - 2004\09 - The Good Thing.wav

Peak level 99.9 % Track quality 99.9 % Test CRC 9CEC085E Copy CRC 9CEC085E Accurately ripped (confidence 3) [09B18B9B] Copy OK

Track 10

Filename D:\Capture\Zumanity - 2004\10 - Tickle Tango.wav

Pre-gap length 0:00:03.43

Peak level 98.8 % Track quality 99.9 % Test CRC 1AB8B5D2 Copy CRC 1AB8B5D2 Accurately ripped (confidence 4) [0CF1AE3F] Copy OK

Track 11

Filename D:\Capture\Zumanity - 2004\11 - Into Me.wav

Peak level 100.0 % Track quality 99.9 % Test CRC 081E0EC0 Copy CRC 081E0EC0 Accurately ripped (confidence 3) [9AF362F2] Copy OK

Track 12

Filename D:\Capture\Zumanity - 2004\12 - Fugare.wav

Pre-gap length 0:00:03.37

Peak level 83.7 % Track quality 100.0 % Test CRC C4F459A5 Copy CRC C4F459A5 Accurately ripped (confidence 4) [C1117956] Copy OK

Track 13

Filename D:\Capture\Zumanity - 2004\13 - Meditation.wav

Peak level 89.5 % Track quality 100.0 % Test CRC 90702D97 Copy CRC 90702D97 Accurately ripped (confidence 4) [E2767B2B] Copy OK

Track 14

Filename D:\Capture\Zumanity - 2004\14 - Piece of Heaven.wav

Peak level 96.6 % Track quality 100.0 % Test CRC BE99D021 Copy CRC BE99D021 Accurately ripped (confidence 4) [7DFB33D0] Copy OK

Track 15

Filename D:\Capture\Zumanity - 2004\15 - Zum Astra.wav

Peak level 100.0 % Track quality 100.0 % Test CRC 7C217874 Copy CRC 7C217874 Accurately ripped (confidence 4) [EDCC9183] Copy OK

Track 16

Filename D:\Capture\Zumanity - 2004\16 - Mangora En Zum.wav

Peak level 99.9 % Track quality 100.0 % Test CRC B39DDF9B Copy CRC B39DDF9B Accurately ripped (confidence 4) [D56B0A5F] Copy OK

Track 17

Filename D:\Capture\Zumanity - 2004\17 - Per Sempre.wav

Peak level 97.7 % Track quality 100.0 % Test CRC 3850FDBD Copy CRC 3850FDBD Accurately ripped (confidence 4) [A0D88EBB] Copy OK

Track 18

Filename D:\Capture\Zumanity - 2004\18 - Bello Amore.wav

Peak level 99.0 % Track quality 100.0 % Test CRC 57A45BA0 Copy CRC 57A45BA0 Accurately ripped (confidence 4) [8AF6F254] Copy OK

All tracks accurately ripped

No errors occurred

End of status report
REM GENRE Soundtrack
REM DATE 2004
REM DISCID D60EEA12
REM COMMENT "ExactAudioCopy v0.99pb5"
PERFORMER "Cirque du Soleil"
TITLE "Zumanity"
FILE "01 - Mio Bello Bello Amore.wav" WAVE
TRACK 01 AUDIO
TITLE "Mio Bello Bello Amore"
PERFORMER "Cirque du Soleil"
INDEX 01 00:00:00
TRACK 02 AUDIO
TITLE "Entree"
PERFORMER "Cirque du Soleil"
INDEX 00 02:56:55
FILE "02 - Entree.wav" WAVE
INDEX 01 00:00:00
FILE "03 - En Zum.wav" WAVE
TRACK 03 AUDIO
TITLE "En Zum"
PERFORMER "Cirque du Soleil"
INDEX 01 00:00:00
FILE "04 - Wind.wav" WAVE
TRACK 04 AUDIO
TITLE "Wind"
PERFORMER "Cirque du Soleil"
INDEX 01 00:00:00
FILE "05 - Another Man.wav" WAVE
TRACK 05 AUDIO
TITLE "Another Man"
PERFORMER "Cirque du Soleil"
INDEX 01 00:00:00
TRACK 06 AUDIO
TITLE "First Taste"
PERFORMER "Cirque du Soleil"
INDEX 00 04:38:17
FILE "06 - First Taste.wav" WAVE
INDEX 01 00:00:00
FILE "07 - Do It Again.wav" WAVE
TRACK 07 AUDIO
TITLE "Do It Again"
PERFORMER "Cirque du Soleil"
INDEX 01 00:00:00
FILE "08 - Water Bowl (Awakening).wav" WAVE
TRACK 08 AUDIO
TITLE "Water Bowl (Awakening)"
PERFORMER "Cirque du Soleil"
INDEX 01 00:00:00
FILE "09 - The Good Thing.wav" WAVE
TRACK 09 AUDIO
TITLE "The Good Thing"
PERFORMER "Cirque du Soleil"
INDEX 01 00:00:00
TRACK 10 AUDIO
TITLE "Tickle Tango"
PERFORMER "Cirque du Soleil"
INDEX 00 04:35:27
FILE "10 - Tickle Tango.wav" WAVE
INDEX 01 00:00:00
FILE "11 - Into Me.wav" WAVE
TRACK 11 AUDIO
TITLE "Into Me"
PERFORMER "Cirque du Soleil"
INDEX 01 00:00:00
TRACK 12 AUDIO
TITLE "Fugare"
PERFORMER "Cirque du Soleil"
INDEX 00 04:31:10
FILE "12 - Fugare.wav" WAVE
INDEX 01 00:00:00
FILE "13 - Meditation.wav" WAVE
TRACK 13 AUDIO
TITLE "Meditation"
PERFORMER "Cirque du Soleil"
INDEX 01 00:00:00
FILE "14 - Piece of Heaven.wav" WAVE
TRACK 14 AUDIO
TITLE "Piece of Heaven"
PERFORMER "Cirque du Soleil"
INDEX 01 00:00:00
FILE "15 - Zum Astra.wav" WAVE
TRACK 15 AUDIO
TITLE "Zum Astra"
PERFORMER "Cirque du Soleil"
INDEX 01 00:00:00
FILE "16 - Mangora En Zum.wav" WAVE
TRACK 16 AUDIO
TITLE "Mangora En Zum"
PERFORMER "Cirque du Soleil"
INDEX 01 00:00:00
FILE "17 - Per Sempre.wav" WAVE
TRACK 17 AUDIO
TITLE "Per Sempre"
PERFORMER "Cirque du Soleil"
INDEX 01 00:00:00
FILE "18 - Bello Amore.wav" WAVE
TRACK 18 AUDIO
TITLE "Bello Amore"
PERFORMER "Cirque du Soleil"
INDEX 01 00:00:00


Трекер:  [ 08-Июл-2011 02:09 ]

  

Скачать .torrent

Размер .torrent файла 38 KB


Размер: 451 MB
Хэш (hash) релиза: b3ed7e422085194c44556b3ba1b4c0f2155bd5ad

Еще никто не оставлял запись к записи скачать торрент Cirque Du Soleil - Zumanity - 2004, FLAC . Будь первым!

!Обратная связь