Скачать через торрент музыку Thomas Newman - WALL-E - 2008, WAVPack бесплатно без регистрации torrent

Статистика раздачи
Размер:  337 MB   |    Зарегистрирован:  7 лет 1 месяц   |    .torrent скачан:  46 раз   |   
Раздают:  1  
   
загрузка...
 
Автор Сообщение

Galfimbul

avatar Galfimbul


Thomas Newman - WALL-E

Жанр: Score / Soundtrack
Год выпуска диска: 2008
Аудио кодек: WAVPack
Тип рипа: image+.cue
Битрейт аудио: lossless
Продолжительность: 01:01:50
Трэклист:
01. Michael Crawford - Put on Your Sunday Clothes
02. Thomas Newman - 2815 A.D.
03. Thomas Newman - Wall-E
04. Thomas Newman - The Spaceship
05. Thomas Newman and Peter Gabriel - Eve
06. Thomas Newman - Thrust
07. Thomas Newman - Bubble Wrap
08. Louis Armstrong - La Vie En Rose
09. Thomas Newman - Eye Surgery
10. Thomas Newman - Worry Wait
11. Thomas Newman - First Date
12. Thomas Newman - EVE Retrieve
13. Thomas Newman - The Axiom
14. Thomas Newman and Bill Bernstein - BNL
15. Thomas Newman - Foreign Contaminant
16. Thomas Newman - Repair Ward
17. Thomas Newman - 72 Degrees and Sunny
18. Thomas Newman - Typing Bot
19. Thomas Newman - Septuacentennial
20. Thomas Newman - Gopher
21. Thomas Newman - WALL-E's Pod Adventure
22. Thomas Newman and Peter Gabriel - Define Dancing
23. Thomas Newman - No Splashing No Diving
24. Thomas Newman - All That Love's About
25. Thomas Newman - M-O
26. Thomas Newman - Directive A-113
27. Thomas Newman - Mutiny!
28. Thomas Newman - Fixing WALL-E
29. Thomas Newman - Rogue Robots
30. Thomas Newman - March of the Gels
31. Thomas Newman - Tilt
32. Thomas Newman - The Holo-Detector
33. Thomas Newman - Hyperjump
34. Thomas Newman - Desperate EVE
35. Thomas Newman - Static
36. Michael Crawford - It Only Takes a Moment
37. Peter Gabriel - Down to Earth
38. Thomas Newman - Horizon 12.2
Exact Audio Copy V0.99 prebeta 4 from 23. January 2008

EAC extraction logfile from 4. September 2008, 20:44

Various / WALL-E (Original Score)

Used drive : _NEC DVD_RW ND-4551A Adapter: 1 ID: 0

Read mode : Secure
Utilize accurate stream : Yes
Defeat audio cache : Yes
Make use of C2 pointers : No

Read offset correction : 48
Overread into Lead-In and Lead-Out : No
Fill up missing offset samples with silence : Yes
Delete leading and trailing silent blocks : No
Null samples used in CRC calculations : Yes
Used interface : Native Win32 interface for Win NT & 2000

Used output format : Internal WAV Routines
Sample format : 44.100 Hz; 16 Bit; Stereo

TOC of the extracted CD

Track | Start | Length | Start sector | End sector
---------------------------------------------------------
1 | 0:00.00 | 1:17.01 | 0 | 5775
2 | 1:17.01 | 3:28.14 | 5776 | 21389
3 | 4:45.15 | 1:59.74 | 21390 | 30388
4 | 6:45.14 | 1:41.65 | 30389 | 38028
5 | 8:27.04 | 1:02.30 | 38029 | 42708
6 | 9:29.34 | 0:41.63 | 42709 | 45846
7 | 10:11.22 | 0:50.37 | 45847 | 49633
8 | 11:01.59 | 3:24.01 | 49634 | 64934
9 | 14:25.60 | 0:40.56 | 64935 | 67990
10 | 15:06.41 | 1:19.08 | 67991 | 73923
11 | 16:25.49 | 1:19.46 | 73924 | 79894
12 | 17:45.20 | 2:19.40 | 79895 | 90359
13 | 20:04.60 | 2:24.53 | 90360 | 101212
14 | 22:29.38 | 0:20.26 | 101213 | 102738
15 | 22:49.64 | 2:06.62 | 102739 | 112250
16 | 24:56.51 | 2:20.06 | 112251 | 122756
17 | 27:16.57 | 3:12.40 | 122757 | 137196
18 | 30:29.22 | 0:47.34 | 137197 | 140755
19 | 31:16.56 | 0:14.72 | 140756 | 141877
20 | 31:31.53 | 0:40.23 | 141878 | 144900
21 | 32:12.01 | 1:13.39 | 144901 | 150414
22 | 33:25.40 | 2:23.28 | 150415 | 161167
23 | 35:48.68 | 0:47.40 | 161168 | 164732
24 | 36:36.33 | 0:37.12 | 164733 | 167519
25 | 37:13.45 | 0:46.67 | 167520 | 171036
26 | 38:00.37 | 2:05.65 | 171037 | 180476
27 | 40:06.27 | 1:29.24 | 180477 | 187175
28 | 41:35.51 | 2:07.73 | 187176 | 196773
29 | 43:43.49 | 2:02.66 | 196774 | 205989
30 | 45:46.40 | 0:54.33 | 205990 | 210072
31 | 46:40.73 | 2:00.48 | 210073 | 219120
32 | 48:41.46 | 1:07.49 | 219121 | 224194
33 | 49:49.20 | 1:04.56 | 224195 | 229050
34 | 50:54.01 | 0:56.72 | 229051 | 233322
35 | 51:50.73 | 1:43.04 | 233323 | 241051
36 | 53:34.02 | 1:07.35 | 241052 | 246111
37 | 54:41.37 | 5:58.40 | 246112 | 273001
38 | 60:40.02 | 1:27.23 | 273002 | 279549

Range status and errors

Selected range

Filename C:\walle\Various - WALL-E (Original Score).wav

Peak level 98.8 %
Range quality 100.0 %
Copy CRC 9E5E1882
Copy OK

No errors occurred
End of status report


Трекер:  [ 08-Июл-2011 02:09 ]

  

Скачать .torrent

Размер .torrent файла 14 KB


Размер: 337 MB
Хэш (hash) релиза: 524f72ea3202d0d73c8f75cee61c1a089d4e4fb2

Еще никто не оставлял запись к записи скачать торрент Thomas Newman - WALL-E - 2008, WAVPack . Будь первым!

!Обратная связь