Скачать через торрент музыку Platoon Взвод бесплатно без регистрации torrent

Статистика раздачи
Размер:  181 MB   |    Зарегистрирован:  7 лет 1 месяц   |    .torrent скачан:  46 раз   |   
Раздают:  1  
   
загрузка...
 
Автор Сообщение

Galfimbul

avatar Galfimbul


Platoon / Взвод
Жанр: Soundtrack
Год выпуска диска: 1987
Производитель диска: USA
Аудио кодек: FLAC
Тип рипа: tracks+.cue
Битрейт аудио: lossless
Продолжительность: 32:51

Трэклист:

01. The Vancouver Symphony Orchestra - 'The Village'
02. Smokey Robinson - Tracks Of My Tears
03. Merle Haggard - Okie From Muskogee
04. The Doors - Hello, I Love You
05. Jefferson Airplane - White Rabbit
06. The Vancouver Symphony Orchestra - 'Barnes Shoots Elias'
07. Aretha Franklin - Respect
08. Otis Redding - (Sittin' On) The Dock Of The Bay
09. Percy Sledge - When A Man Loves A Woman
10. The Rascals - Groovin'
11. The Vancouver Symphony Orchestra - Adagio For Strings (Barber - Narration: Charlie Sheen)
Exact Audio Copy V0.99 prebeta 5 from 4. May 2009

EAC extraction logfile from 3. August 2009, 18:02

Various / Original Motion Picture Soundtrack "Platoon" And Songs From The Era

Used drive : Optiarc DVD RW AD-7170A Adapter: 0 ID: 0

Read mode : Secure
Utilize accurate stream : Yes
Defeat audio cache : Yes
Make use of C2 pointers : No

Read offset correction : 48
Overread into Lead-In and Lead-Out : No
Fill up missing offset samples with silence : Yes
Delete leading and trailing silent blocks : No
Null samples used in CRC calculations : Yes
Used interface : Native Win32 interface for Win NT & 2000
Gap handling : Appended to previous track

Used output format : User Defined Encoder
Selected bitrate : 320 kBit/s
Quality : High
Add ID3 tag : No
Command line compressor : C:\Program Files\Exact Audio Copy\Flac\flac.exe
Additional command line options : -8 -V -T "ARTIST=%a" -T "TITLE=%t" -T "ALBUM=%g" -T "DATE=%y" -T "TRACKNUMBER=%n" -T "GENRE=%m" -T "COMMENT=EAC FLAC -8" %s

TOC of the extracted CD

Track | Start | Length | Start sector | End sector
---------------------------------------------------------
1 | 0:00.00 | 1:44.03 | 0 | 7802
2 | 1:44.03 | 2:53.04 | 7803 | 20781
3 | 4:37.07 | 3:02.08 | 20782 | 34439
4 | 7:39.15 | 2:11.12 | 34440 | 44276
5 | 9:50.27 | 2:33.10 | 44277 | 55761
6 | 12:23.37 | 3:08.01 | 55762 | 69862
7 | 15:31.38 | 2:25.06 | 69863 | 80743
8 | 17:56.44 | 2:43.13 | 80744 | 92981
9 | 20:39.57 | 2:50.14 | 92982 | 105745
10 | 23:29.71 | 2:27.08 | 105746 | 116778
11 | 25:57.04 | 6:54.08 | 116779 | 147836

Track 1

Filename K:\Platoon - Soundtrack (1990-CD) FLAC\01. The Vancouver Symphony Orchestra (Conducted By Georges Delerue) – 'The Village' - Adagio For Strings.wav

Pre-gap length 0:00:02.00

Peak level 97.0 %
Track quality 100.0 %
Test CRC B166D943
Copy CRC B166D943
Copy OK

Track 2

Filename K:\Platoon - Soundtrack (1990-CD) FLAC\02. Smokey Robinson – Tracks Of My Tears.wav

Peak level 99.8 %
Track quality 100.0 %
Test CRC E1B748BE
Copy CRC E1B748BE
Copy OK

Track 3

Filename K:\Platoon - Soundtrack (1990-CD) FLAC\03. Merle Haggard – Okie From Muskogee.wav

Peak level 100.0 %
Track quality 100.0 %
Test CRC DD6DE787
Copy CRC DD6DE787
Copy OK

Track 4

Filename K:\Platoon - Soundtrack (1990-CD) FLAC\04. The Doors – Hello, I Love You.wav

Peak level 100.0 %
Track quality 99.9 %
Test CRC 5F0BFBC5
Copy CRC 5F0BFBC5
Copy OK

Track 5

Filename K:\Platoon - Soundtrack (1990-CD) FLAC\05. Jefferson Airplane – White Rabbit.wav

Peak level 100.0 %
Track quality 100.0 %
Test CRC 744A9032
Copy CRC 744A9032
Copy OK

Track 6

Filename K:\Platoon - Soundtrack (1990-CD) FLAC\06. The Vancouver Symphony Orchestra (Conducted By Georges Delerue) – 'Barnes Shoots Elias'.wav

Peak level 100.0 %
Track quality 100.0 %
Test CRC 8237119B
Copy CRC 8237119B
Copy OK

Track 7

Filename K:\Platoon - Soundtrack (1990-CD) FLAC\07. Aretha Franklin – Respect.wav

Peak level 100.0 %
Track quality 100.0 %
Test CRC 18C4D1C6
Copy CRC 18C4D1C6
Copy OK

Track 8

Filename K:\Platoon - Soundtrack (1990-CD) FLAC\08. Otis Redding – (Sittin' On) The Dock Of The Bay.wav

Peak level 100.0 %
Track quality 100.0 %
Test CRC 1A203538
Copy CRC 1A203538
Copy OK

Track 9

Filename K:\Platoon - Soundtrack (1990-CD) FLAC\09. Percy Sledge – When A Man Loves A Woman.wav

Peak level 100.0 %
Track quality 100.0 %
Test CRC 0FA173CA
Copy CRC 0FA173CA
Copy OK

Track 10

Filename K:\Platoon - Soundtrack (1990-CD) FLAC\10. The Rascals – Groovin'.wav

Peak level 92.1 %
Track quality 99.9 %
Test CRC AD66EBE4
Copy CRC AD66EBE4
Copy OK

Track 11

Filename K:\Platoon - Soundtrack (1990-CD) FLAC\11. The Vancouver Symphony Orchestra (Conducted By Georges Delerue) – Adagio For Strings.wav

Peak level 83.6 %
Track quality 99.9 %
Test CRC 0E40E2E4
Copy CRC 0E40E2E4
Copy OK

No errors occurred

End of status report



Трекер:  [ 08-Июл-2011 02:09 ]

  

Скачать .torrent

Размер .torrent файла 16 KB


Размер: 181 MB
Хэш (hash) релиза: a2b8a061a168285cbef7a4874c4497df064d1eb6

Торренты, похожие на Platoon Взвод скачать торрент

Форум Название Автор Размер S L Добавлен
Саундтреки к фильмам и мультфильмам (lossless) ·· (Score) Сальвадор / Salvador - Взвод / Platoon (by Georges Delerue) - 1995 (1986), FLAC (image+.cue), lossless Galfimbul 453040237432 MB 0 0 1418070982

23:36

8-Дек-14

Саундтреки к фильмам и мультфильмам (mp3) ·· (Soundtrack) Взвод / Platoon (Georges Delerue & VA) - 1990 (1987) [MP3 320 kbps] AqvaGen 8037460877 MB 0 0 1292266409

21:53

13-Дек-10

Еще никто не оставлял запись к записи скачать торрент Platoon Взвод . Будь первым!

!Обратная связь