Скачать через торрент музыку Score - Kung Fu Panda Кунг Фу Панда - 2008, WAVPack бесплатно без регистрации torrent

Статистика раздачи
Размер:  357 MB   |    Зарегистрирован:  7 лет 4 месяца   |    .torrent скачан:  33 раза   |   
Раздают:  1  
   
загрузка...
 
Автор Сообщение

Galfimbul

avatar Galfimbul


Kung Fu Panda/ Кунг Фу Панда

Жанр: Soundtrack (Score)
Год выпуска диска: 2008
Производитель диска: USA
Аудио кодек: WAVPack
Тип рипа: image+.cue
Битрейт аудио: 753kbps
Продолжительность: 68:40
Трэклист:
01. Hero (4:42)
02. Let the Tournament Begin (1:59)
03. Dragon Warrior Is Among Us (2:57)
04. Tai Lung Escapes (7:06)
05. Peach Tree of Wisdom (1:53)
06. Accu-flashback (4:05)
07. Impersonating Shifu (2:18)
08. Sacred Pool of Tears (9:51)
09. Training Po (1:28)
10. The Bridge (3:23)
11. Shifu Faces Tai Lung (4:46)
12. The Dragon Scroll (2:31)
13. Po Vs Tai Lung (2:41)
14. Dragon Warrior Rises (3:22)
15. Panda Po (2:39)
16. Oogway Ascends (2:04)
17. Kung Fu Fighting (2:32)
18. Kung Fu Fighting (3:30)
19. Kung Fu Fighting (2:23)
Exact Audio Copy V0.99 prebeta 4 from 23. January 2008

EAC extraction logfile from 25. June 2008, 20:38

Hans Zimmer & John Powell / Kung Fu Panda OST

Used drive : _NEC DVD_RW ND-4551A Adapter: 1 ID: 0

Read mode : Secure
Utilize accurate stream : Yes
Defeat audio cache : Yes
Make use of C2 pointers : No

Read offset correction : 48
Overread into Lead-In and Lead-Out : No
Fill up missing offset samples with silence : Yes
Delete leading and trailing silent blocks : No
Null samples used in CRC calculations : Yes
Used interface : Native Win32 interface for Win NT & 2000

Used output format : Internal WAV Routines
Sample format : 44.100 Hz; 16 Bit; Stereo

TOC of the extracted CD

Track | Start | Length | Start sector | End sector
---------------------------------------------------------
1 | 0:00.00 | 4:41.60 | 0 | 21134
2 | 4:41.60 | 1:58.40 | 21135 | 30024
3 | 6:40.25 | 2:56.43 | 30025 | 43267
4 | 9:36.68 | 7:05.50 | 43268 | 75192
5 | 16:42.43 | 1:53.31 | 75193 | 83698
6 | 18:35.74 | 4:04.50 | 83699 | 102048
7 | 22:40.49 | 2:17.68 | 102049 | 112391
8 | 24:58.42 | 9:50.61 | 112392 | 156702
9 | 34:49.28 | 1:28.01 | 156703 | 163303
10 | 36:17.29 | 3:22.58 | 163304 | 178511
11 | 39:40.12 | 4:46.37 | 178512 | 199998
12 | 44:26.49 | 2:31.22 | 199999 | 211345
13 | 46:57.71 | 2:40.38 | 211346 | 223383
14 | 49:38.34 | 3:22.18 | 223384 | 238551
15 | 53:00.52 | 2:39.01 | 238552 | 250477
16 | 55:39.53 | 2:03.38 | 250478 | 259740
17 | 57:43.16 | 2:32.00 | 259741 | 271140
18 | 60:15.16 | 3:30.02 | 271141 | 286892
19 | 63:45.18 | 2:22.59 | 286893 | 297601
20 | 68:40.02 | 6:53.30 | 309002 | 340006

Range status and errors

Selected range

Filename H:\Kung.Fu.Panda.OST\Hans Zimmer & John Powell - Kung Fu Panda OST.wav

Peak level 99.8 %
Range quality 100.0 %
Copy CRC 9D82781B
Copy OK

No errors occurred
End of status report
ковера, .log и .cue вшит в файл
REM GENRE Soundtrack
REM DATE 2008
REM DISCID 0F11B514
REM COMMENT "ExactAudioCopy v0.99pb4"
CATALOG 0602517742871
PERFORMER "Hans Zimmer & John Powell"
TITLE "Kung Fu Panda OST"
FILE "Hans.Zimmer.&.John.Powell--Kung.Fu.Panda.wv" WAVE
TRACK 01 AUDIO
TITLE "Hero"
PERFORMER "Hans Zimmer & John Powell"
ISRC USUM70812420
INDEX 01 00:00:00
TRACK 02 AUDIO
TITLE "Let the Tournament Begin"
PERFORMER "Hans Zimmer & John Powell"
ISRC USUM70812422
INDEX 01 04:41:60
TRACK 03 AUDIO
TITLE "Dragon Warrior Is Among Us"
PERFORMER "Hans Zimmer & John Powell"
ISRC USUM70812417
INDEX 01 06:40:25
TRACK 04 AUDIO
TITLE "Tai Lung Escapes"
PERFORMER "Hans Zimmer & John Powell"
ISRC USUM70812429
INDEX 01 09:36:68
TRACK 05 AUDIO
TITLE "Peach Tree of Wisdom"
PERFORMER "Hans Zimmer & John Powell"
ISRC USUM70812425
INDEX 01 16:42:43
TRACK 06 AUDIO
TITLE "Accu-flashback"
PERFORMER "Hans Zimmer & John Powell"
ISRC USUM70812416
INDEX 01 18:35:74
TRACK 07 AUDIO
TITLE "Impersonating Shifu"
PERFORMER "Hans Zimmer & John Powell"
ISRC USUM70812421
INDEX 01 22:40:49
TRACK 08 AUDIO
TITLE "Sacred Pool of Tears"
PERFORMER "Hans Zimmer & John Powell"
ISRC USUM70812427
INDEX 01 24:58:42
TRACK 09 AUDIO
TITLE "Training Po"
PERFORMER "Hans Zimmer & John Powell"
ISRC USUM70812439
INDEX 01 34:49:28
TRACK 10 AUDIO
TITLE "The Bridge"
PERFORMER "Hans Zimmer & John Powell"
ISRC USUM70812430
INDEX 01 36:17:29
TRACK 11 AUDIO
TITLE "Shifu Faces Tai Lung"
PERFORMER "Hans Zimmer & John Powell"
ISRC USUM70812428
INDEX 01 39:40:12
TRACK 12 AUDIO
TITLE "The Dragon Scroll"
PERFORMER "Hans Zimmer & John Powell"
ISRC USUM70812438
INDEX 01 44:26:49
TRACK 13 AUDIO
TITLE "Po Vs Tai Lung"
PERFORMER "Hans Zimmer & John Powell"
ISRC USUM70812426
INDEX 01 46:57:71
TRACK 14 AUDIO
TITLE "Dragon Warrior Rises"
PERFORMER "Hans Zimmer & John Powell"
ISRC USUM70812418
INDEX 01 49:38:34
TRACK 15 AUDIO
TITLE "Panda Po"
PERFORMER "Hans Zimmer & John Powell"
ISRC USUM70812424
INDEX 01 53:00:52
TRACK 16 AUDIO
TITLE "Oogway Ascends"
PERFORMER "Hans Zimmer & John Powell"
ISRC USUM70812423
INDEX 01 55:39:53
TRACK 17 AUDIO
TITLE "Kung Fu Fighting"
PERFORMER "Cee-Lo and Jack Black"
ISRC USUM70812440
INDEX 01 57:43:16
TRACK 18 AUDIO
TITLE "Kung Fu Fighting"
PERFORMER "Rain"
ISRC USUM70813571
INDEX 01 60:15:16
TRACK 19 AUDIO
TITLE "Kung Fu Fighting"
PERFORMER "Sam Concepcion"
ISRC USUM70813572
INDEX 01 63:45:18


Трекер:  [ 08-Июл-2011 02:08 ]

  

Скачать .torrent

Размер .torrent файла 14 KB


Размер: 357 MB
Хэш (hash) релиза: 8d226774a258abc6940f7909ef947630c9e9a19f

Еще никто не оставлял запись к записи скачать торрент Score - Kung Fu Panda Кунг Фу Панда - 2008, WAVPack . Будь первым!

!Обратная связь