Скачать через торрент музыку Я люблю тебя, Филлип Моррис I Love You Phillip Morris бесплатно без регистрации torrent

Статистика раздачи
Размер:  232 MB   |    Зарегистрирован:  6 лет 9 месяцев   |    .torrent скачан:  47 раз   |   
Раздают:  1  
   
загрузка...
 
Автор Сообщение

Galfimbul

avatar Galfimbul


Я люблю тебя, Филлип Моррис / I Love You Phillip Morris

Жанр: Soundtrack
Год выпуска диска: 2010
Производитель диска: USA
Аудио кодек: FLAC
Тип рипа: tracks+.cue
Битрейт аудио: lossless
Продолжительность: 00:40:00

01 - DeVotchKa - I Cried Like a Silly Boy (03:26)
02 - Wang Chung - Dance Hall Days (03:59)
03 - Nick Urata - Key West (00:53)
04 - Nick Urata - Jesus Has a Plan (02:14)
05 - Nina Simone - To Love Somebody (02:40)
06 - Nick Urata - Written in the Stars (03:58)
07 - The Golden Gate Quartet - Nobody Knows the Trouble I've Seen (03:15)
08 - Nick Urata - Promise to Jimmy (02:30)
09 - Nick Urata - The Escape Artist (04:35)
10 - Nick Urata - The Last Time (02:59)
11 - Robbie Dupree - Steal Away (03:31)
12 - Nick Urata - Faking Death (02:44)
13 - Wolfgang Amadeus Mozart - The Marriage of Figaro (03:33)

Источник: waffles.fm
 
Exact Audio Copy V0.99 prebeta 3 from 28. July 2007

EAC extraction logfile from 23. June 2010, 22:34

Various / I Love You Phillip Morris

Used drive : TEAC DV-W28ECT Adapter: 1 ID: 0

Read mode : SecureUtilize accurate stream : YesDefeat audio cache : YesMake use of C2 pointers : No

Read offset correction : 48Overread into Lead-In and Lead-Out : NoFill up missing offset samples with silence : YesDelete leading and trailing silent blocks : NoNull samples used in CRC calculations : YesUsed interface : Native Win32 interface for Win NT & 2000Gap handling : Appended to previous track

Used output format : User Defined EncoderSelected bitrate : 320 kBit/sQuality : HighAdd ID3 tag : NoCommand line compressor : C:\Program Files (x86)\FLAC\flac.exeAdditional command line options : -V -8 -T "artist=%a" -T "title=%t" -T "album=%g" -T "date=%y" -T "tracknumber=%n" -T "genre=%m" %s

TOC of the extracted CD

Track | Start | Length | Start sector | End sector --------------------------------------------------------- 1 | 0:00.00 | 3:26.36 | 0 | 15485 2 | 3:26.36 | 3:59.24 | 15486 | 33434 3 | 7:25.60 | 0:52.42 | 33435 | 37376 4 | 8:18.27 | 2:13.39 | 37377 | 47390 5 | 10:31.66 | 2:40.05 | 47391 | 59395 6 | 13:11.71 | 3:58.21 | 59396 | 77266 7 | 17:10.17 | 3:15.29 | 77267 | 91920 8 | 20:25.46 | 2:30.25 | 91921 | 103195 9 | 22:55.71 | 4:34.63 | 103196 | 123808 10 | 27:30.59 | 2:59.10 | 123809 | 137243 11 | 30:29.69 | 3:30.40 | 137244 | 153033 12 | 34:00.34 | 2:43.66 | 153034 | 165324 13 | 36:44.25 | 3:33.00 | 165325 | 181299

Track 1

Filename C:\EAC\I Love You Phillip Morris (2010)\01 - DeVotchKa - I Cried Like a Silly Boy.wav

Pre-gap length 0:00:02.00

Peak level 98.7 % Track quality 100.0 % Test CRC 07D2E046 Copy CRC 07D2E046 Accurately ripped (confidence 1) [45B9A0C7] Copy OK

Track 2

Filename C:\EAC\I Love You Phillip Morris (2010)\02 - Wang Chung - Dance Hall Days.wav

Peak level 89.0 % Track quality 100.0 % Test CRC A773E888 Copy CRC A773E888 Accurately ripped (confidence 1) [FD2C12A1] Copy OK

Track 3

Filename C:\EAC\I Love You Phillip Morris (2010)\03 - Nick Urata - Key West.wav

Pre-gap length 0:00:01.65

Peak level 88.4 % Track quality 100.0 % Test CRC E0DCA064 Copy CRC E0DCA064 Accurately ripped (confidence 1) [EE9A78E0] Copy OK

Track 4

Filename C:\EAC\I Love You Phillip Morris (2010)\04 - Nick Urata - Jesus Has a Plan.wav

Pre-gap length 0:00:01.53

Peak level 98.8 % Track quality 100.0 % Test CRC BDF95C07 Copy CRC BDF95C07 Accurately ripped (confidence 1) [EE1E7FB4] Copy OK

Track 5

Filename C:\EAC\I Love You Phillip Morris (2010)\05 - Nina Simone - To Love Somebody.wav

Pre-gap length 0:00:01.02

Peak level 98.8 % Track quality 99.9 % Test CRC ECFCB64B Copy CRC ECFCB64B Accurately ripped (confidence 1) [6AADBD07] Copy OK

Track 6

Filename C:\EAC\I Love You Phillip Morris (2010)\06 - Nick Urata - Written in the Stars.wav

Pre-gap length 0:00:01.22

Peak level 98.8 % Track quality 100.0 % Test CRC BE654C9C Copy CRC BE654C9C Accurately ripped (confidence 1) [DC0ED8E8] Copy OK

Track 7

Filename C:\EAC\I Love You Phillip Morris (2010)\07 - The Golden Gate Quartet - Nobody Knows the Trouble I've Seen.wav

Pre-gap length 0:00:01.98

Peak level 98.8 % Track quality 100.0 % Test CRC 85667E41 Copy CRC 85667E41 Accurately ripped (confidence 1) [CDF6A39A] Copy OK

Track 8

Filename C:\EAC\I Love You Phillip Morris (2010)\08 - Nick Urata - Promise to Jimmy.wav

Pre-gap length 0:00:00.90

Peak level 91.7 % Track quality 100.0 % Test CRC 299CEA25 Copy CRC 299CEA25 Accurately ripped (confidence 1) [5B9F0614] Copy OK

Track 9

Filename C:\EAC\I Love You Phillip Morris (2010)\09 - Nick Urata - The Escape Artist.wav

Pre-gap length 0:00:02.04

Peak level 98.8 % Track quality 100.0 % Test CRC 56B26A67 Copy CRC 56B26A67 Accurately ripped (confidence 1) [147A8C19] Copy OK

Track 10

Filename C:\EAC\I Love You Phillip Morris (2010)\10 - Nick Urata - The Last Time.wav

Pre-gap length 0:00:01.21

Peak level 98.8 % Track quality 100.0 % Test CRC FEF3BFFE Copy CRC FEF3BFFE Accurately ripped (confidence 1) [B5D9F184] Copy OK

Track 11

Filename C:\EAC\I Love You Phillip Morris (2010)\11 - Robbie Dupree - Steal Away.wav

Pre-gap length 0:00:01.60

Peak level 98.8 % Track quality 99.9 % Test CRC DCD7097F Copy CRC DCD7097F Accurately ripped (confidence 1) [B1C1B125] Copy OK

Track 12

Filename C:\EAC\I Love You Phillip Morris (2010)\12 - Nick Urata - Faking Death.wav

Pre-gap length 0:00:01.66

Peak level 98.8 % Track quality 100.0 % Test CRC 9D8E7309 Copy CRC 9D8E7309 Accurately ripped (confidence 1) [79337974] Copy OK

Track 13

Filename C:\EAC\I Love You Phillip Morris (2010)\13 - Wolfgang Amadeus Mozart - The Marriage of Figaro.wav

Pre-gap length 0:00:01.84

Peak level 98.8 % Track quality 100.0 % Test CRC 5E641A8D Copy CRC 5E641A8D Accurately ripped (confidence 1) [C60F2EAE] Copy OK

All tracks accurately ripped

No errors occurred

End of status report
 
REM GENRE SoundtrackREM DATE 2010REM DISCID 9009710DREM COMMENT "ExactAudioCopy v0.99pb3"FILE "01 - DeVotchKa - I Cried Like a Silly Boy.wav" WAVE TRACK 01 AUDIO INDEX 01 00:00:00FILE "02 - Wang Chung - Dance Hall Days.wav" WAVE TRACK 02 AUDIO INDEX 01 00:00:00 TRACK 03 AUDIO INDEX 00 03:57:50FILE "03 - Nick Urata - Key West.wav" WAVE INDEX 01 00:00:00 TRACK 04 AUDIO INDEX 00 00:51:02FILE "04 - Nick Urata - Jesus Has a Plan.wav" WAVE INDEX 01 00:00:00 TRACK 05 AUDIO INDEX 00 02:12:37FILE "05 - Nina Simone - To Love Somebody.wav" WAVE INDEX 01 00:00:00 TRACK 06 AUDIO INDEX 00 02:38:63FILE "06 - Nick Urata - Written in the Stars.wav" WAVE INDEX 01 00:00:00 TRACK 07 AUDIO INDEX 00 03:56:22FILE "07 - The Golden Gate Quartet - Nobody Knows the Trouble I've Seen.wav" WAVE INDEX 01 00:00:00 TRACK 08 AUDIO INDEX 00 03:14:36FILE "08 - Nick Urata - Promise to Jimmy.wav" WAVE INDEX 01 00:00:00 TRACK 09 AUDIO INDEX 00 02:28:22FILE "09 - Nick Urata - The Escape Artist.wav" WAVE INDEX 01 00:00:00 TRACK 10 AUDIO INDEX 00 04:33:47FILE "10 - Nick Urata - The Last Time.wav" WAVE INDEX 01 00:00:00 TRACK 11 AUDIO INDEX 00 02:57:40FILE "11 - Robbie Dupree - Steal Away.wav" WAVE INDEX 01 00:00:00 TRACK 12 AUDIO INDEX 00 03:28:65FILE "12 - Nick Urata - Faking Death.wav" WAVE INDEX 01 00:00:00 TRACK 13 AUDIO INDEX 00 02:42:03FILE "13 - Wolfgang Amadeus Mozart - The Marriage of Figaro.wav" WAVE INDEX 01 00:00:00



Трекер:  [ 08-Июл-2011 02:07 ]

  

Скачать .torrent

Размер .torrent файла 19 KB


Размер: 232 MB
Хэш (hash) релиза: dc5c8058ed0c2d164f2ee966df08f9a8adc5fcc2

Еще никто не оставлял запись к записи скачать торрент Я люблю тебя, Филлип Моррис I Love You Phillip Morris . Будь первым!

!Обратная связь