Скачать через торрент музыку Мемуары гейши Memoirs of a Geisha by John Williams - 2005, FLAC бесплатно без регистрации torrent

Статистика раздачи
Размер:  279 MB   |    Зарегистрирован:  6 лет 9 месяцев   |    .torrent скачан:  37 раз   |   
Раздают:  1  
   
загрузка...
 
Автор Сообщение

Galfimbul

avatar Galfimbul


Мемуары гейши / Memoirs of a Geisha by John Williams


Жанр: Score
Год выпуска диска: 2005
Производитель диска: USA
Аудио кодек: FLAC
Тип рипа: tracks+.cue
Битрейт аудио: lossless
Продолжительность: 1:01:02
Трэклист:

01. Sayuri's Theme (1:31)
02. The Journey to the Hanamachi (4:06)
03. Going to School (2:43)
04. Brush On Silk (2:31)
05. Chiyo's Prayer (3:37)
06. Becoming a Geisha (4:52)
07. Finding Satsu (3:45)
08. The Chairman's Waltz (2:40)
09. The Rooftops of the Hanamachi (3:50)
10. The Garden Meeting (2:44)
11. Dr. Crab's Prize (2:19)
12. Destiny's Path (3:21)
13. A New Name... A New Life (3:33)
14. The Fire Scene and the Coming of War (6:49)
15. As the Water... (2:01)
16. Confluence (3:43)
17. A Dream Discarded (2:00)
18. Sayuri's Theme and End Credits (5:06)
Exact Audio Copy V0.99 prebeta 4 from 23. January 2008

EAC extraction logfile from 14. June 2008, 17:40

John Williams / Memoirs of a Geisha

Used drive : TSSTcorpDVD-ROM TS-H352C Adapter: 1 ID: 1

Read mode : Secure
Utilize accurate stream : Yes
Defeat audio cache : Yes
Make use of C2 pointers : No

Read offset correction : 6
Overread into Lead-In and Lead-Out : No
Fill up missing offset samples with silence : Yes
Delete leading and trailing silent blocks : No
Null samples used in CRC calculations : Yes
Used interface : Installed external ASPI interface
Gap handling : Appended to previous track

Used output format : User Defined Encoder
Selected bitrate : 192 kBit/s
Quality : High
Add ID3 tag : No
Command line compressor : C:\Program Files\FLAC\flac.exe
Additional command line options : -8 -A tukey(0.25) -A gauss(0.1875) -b 4096 -V -T "artist=%a" -T "title=%t" -T "album=%g" -T "date=%y" -T "tracknumber=%n" -T "genre=%m" %s --sector-align

TOC of the extracted CD

Track | Start | Length | Start sector | End sector
---------------------------------------------------------
1 | 0:00.00 | 1:31.37 | 0 | 6861
2 | 1:31.37 | 4:06.28 | 6862 | 25339
3 | 5:37.65 | 2:42.58 | 25340 | 37547
4 | 8:20.48 | 2:31.09 | 37548 | 48881
5 | 10:51.57 | 3:36.47 | 48882 | 65128
6 | 14:28.29 | 4:52.10 | 65129 | 87038
7 | 19:20.39 | 3:44.60 | 87039 | 103898
8 | 23:05.24 | 2:39.40 | 103899 | 115863
9 | 25:44.64 | 3:49.61 | 115864 | 133099
10 | 29:34.50 | 2:44.01 | 133100 | 145400
11 | 32:18.51 | 2:18.46 | 145401 | 155796
12 | 34:37.22 | 3:20.70 | 155797 | 170866
13 | 37:58.17 | 3:33.33 | 170867 | 186874
14 | 41:31.50 | 6:48.56 | 186875 | 217530
15 | 48:20.31 | 2:01.26 | 217531 | 226631
16 | 50:21.57 | 3:42.64 | 226632 | 243345
17 | 54:04.46 | 2:00.10 | 243346 | 252355
18 | 56:04.56 | 5:06.35 | 252356 | 275340

Track 1

Filename N:\01 - Sayuri's Theme.wav

Pre-gap length 0:00:02.00

Peak level 95.0 %
Track quality 100.0 %
Test CRC 946CCF9D
Copy CRC 946CCF9D
Copy OK

Track 2

Filename N:\02 - The Journey to the Hanamachi.wav

Peak level 91.0 %
Track quality 99.9 %
Test CRC 5ABE902F
Copy CRC 5ABE902F
Copy OK

Track 3

Filename N:\03 - Going to School.wav

Peak level 95.0 %
Track quality 100.0 %
Test CRC 40F9ED26
Copy CRC 40F9ED26
Copy OK

Track 4

Filename N:\04 - Brush On Silk.wav

Peak level 95.0 %
Track quality 100.0 %
Test CRC 816E75C3
Copy CRC 816E75C3
Copy OK

Track 5

Filename N:\05 - Chiyo's Prayer.wav

Peak level 59.8 %
Track quality 100.0 %
Test CRC E249C5FE
Copy CRC E249C5FE
Copy OK

Track 6

Filename N:\06 - Becoming a Geisha.wav

Peak level 95.0 %
Track quality 100.0 %
Test CRC 9C71D9A3
Copy CRC 9C71D9A3
Copy OK

Track 7

Filename N:\07 - Finding Satsu.wav

Peak level 95.0 %
Track quality 99.9 %
Test CRC 48E778AF
Copy CRC 48E778AF
Copy OK

Track 8

Filename N:\08 - The Chairman's Waltz.wav

Peak level 67.0 %
Track quality 100.0 %
Test CRC CF17DAB1
Copy CRC CF17DAB1
Copy OK

Track 9

Filename N:\09 - The Rooftops of the Hanamachi.wav

Peak level 95.0 %
Track quality 99.9 %
Test CRC 26116A72
Copy CRC 26116A72
Copy OK

Track 10

Filename N:\10 - The Garden Meeting.wav

Peak level 70.9 %
Track quality 99.9 %
Test CRC 8EEEF604
Copy CRC 8EEEF604
Copy OK

Track 11

Filename N:\11 - Dr. Crab's Prize.wav

Peak level 50.9 %
Track quality 100.0 %
Test CRC CA48BCF8
Copy CRC CA48BCF8
Copy OK

Track 12

Filename N:\12 - Destiny's Path.wav

Peak level 90.3 %
Track quality 100.0 %
Test CRC 00CC0A11
Copy CRC 00CC0A11
Copy OK

Track 13

Filename N:\13 - A New Name... A New Life.wav

Peak level 91.0 %
Track quality 100.0 %
Test CRC E558007E
Copy CRC E558007E
Copy OK

Track 14

Filename N:\14 - The Fire Scene and the Coming of War.wav

Peak level 90.1 %
Track quality 99.9 %
Test CRC 7F532EBA
Copy CRC 7F532EBA
Copy OK

Track 15

Filename N:\15 - As The Water....wav

Peak level 63.2 %
Track quality 100.0 %
Test CRC 9E8CE43B
Copy CRC 9E8CE43B
Copy OK

Track 16

Filename N:\16 - Confluence.wav

Peak level 95.0 %
Track quality 100.0 %
Test CRC C30D2009
Copy CRC C30D2009
Copy OK

Track 17

Filename N:\17 - A Dream Discarded.wav

Peak level 66.8 %
Track quality 100.0 %
Test CRC EECA96E4
Copy CRC EECA96E4
Copy OK

Track 18

Filename N:\18 - Sayuri's Theme and End Credits.wav

Peak level 93.4 %
Track quality 100.0 %
Test CRC 9EA6277A
Copy CRC 9EA6277A
Copy OK

No errors occurred

End of status report


Трекер:  [ 08-Июл-2011 02:06 ]

  

Скачать .torrent

Размер .torrent файла 12 KB


Размер: 279 MB
Хэш (hash) релиза: 39be8c50c008dfed25af3ffc32e7f7f2bd66be15

Еще никто не оставлял запись к записи скачать торрент Мемуары гейши Memoirs of a Geisha by John Williams - 2005, FLAC . Будь первым!

!Обратная связь