Скачать через торрент музыку Legends Of The Fall Легенды осени бесплатно без регистрации torrent

Статистика раздачи
Размер:  335 MB   |    Зарегистрирован:  6 лет 9 месяцев   |    .torrent скачан:  39 раз   |   
Раздают:  1  
   
загрузка...
 
Автор Сообщение

Galfimbul

avatar Galfimbul


Legends Of The Fall / Легенды осени
Жанр: Score
Год выпуска диска: 1994
Производитель диска: USA
Аудио кодек: FLAC
Тип рипа: tracks+.cue
Битрейт аудио: lossless
Продолжительность: 1:15:16

Трэклист:

01. Legends Of The Fall
02. The Ludlows
03. Off To War
04. To The Boys
05. Samuel's Death
06. Alfred Moves To Helena
07. Farewell,Descent Into Madness
08. The Changing Seasons, Wild Horses, Tristan's Return
09. The Wedding
10. Isabel's Murder, Recollections Of Samuel
11. Revenge
12. Goodbyes
13. Alfred, Tristan, The Colonol, The Legend ...


Exact Audio Copy V0.99 prebeta 5 from 4. May 2009

EAC extraction logfile from 12. August 2009, 19:19

James Horner / Legends Of The Fall

Used drive : Optiarc DVD RW AD-7170A Adapter: 0 ID: 0

Read mode : Secure
Utilize accurate stream : Yes
Defeat audio cache : Yes
Make use of C2 pointers : No

Read offset correction : 48
Overread into Lead-In and Lead-Out : No
Fill up missing offset samples with silence : Yes
Delete leading and trailing silent blocks : No
Null samples used in CRC calculations : Yes
Used interface : Native Win32 interface for Win NT & 2000
Gap handling : Appended to previous track

Used output format : User Defined Encoder
Selected bitrate : 320 kBit/s
Quality : High
Add ID3 tag : No
Command line compressor : C:\Program Files\Exact Audio Copy\Flac\flac.exe
Additional command line options : -8 -V -T "ARTIST=%a" -T "TITLE=%t" -T "ALBUM=%g" -T "DATE=%y" -T "TRACKNUMBER=%n" -T "GENRE=%m" -T "COMMENT=EAC FLAC -8" %s

TOC of the extracted CD

Track | Start | Length | Start sector | End sector
---------------------------------------------------------
1 | 0:00.00 | 4:16.70 | 0 | 19269
2 | 4:16.70 | 5:40.33 | 19270 | 44802
3 | 9:57.28 | 5:55.20 | 44803 | 71447
4 | 15:52.48 | 2:48.42 | 71448 | 84089
5 | 18:41.15 | 8:24.33 | 84090 | 121922
6 | 27:05.48 | 3:00.42 | 121923 | 135464
7 | 30:06.15 | 8:13.23 | 135465 | 172462
8 | 38:19.38 | 5:11.20 | 172463 | 195807
9 | 43:30.58 | 3:06.30 | 195808 | 209787
10 | 46:37.13 | 3:58.05 | 209788 | 227642
11 | 50:35.18 | 6:20.22 | 227643 | 256164
12 | 56:55.40 | 3:11.63 | 256165 | 270552
13 | 60:07.28 | 15:09.00 | 270553 | 338727

Track 1

Filename K:\SoundTrack_Legends Of The Fall\ 01. James Horner – Legends Of The Fall.wav

Pre-gap length 0:00:02.00

Peak level 40.1 %
Track quality 100.0 %
Test CRC 0D26653B
Copy CRC 0D26653B
Copy OK

Track 2

Filename K:\SoundTrack_Legends Of The Fall\ 02. James Horner – The Ludlows.wav

Peak level 41.2 %
Track quality 100.0 %
Test CRC 5D5C44A9
Copy CRC 5D5C44A9
Copy OK

Track 3

Filename K:\SoundTrack_Legends Of The Fall\ 03. James Horner – Off To War.wav

Peak level 60.1 %
Track quality 100.0 %
Test CRC D18D21E5
Copy CRC D18D21E5
Copy OK

Track 4

Filename K:\SoundTrack_Legends Of The Fall\ 04. James Horner – To The Boys.wav

Peak level 100.0 %
Track quality 100.0 %
Test CRC F7309572
Copy CRC F7309572
Copy OK

Track 5

Filename K:\SoundTrack_Legends Of The Fall\ 05. James Horner – Samuel's Death.wav

Peak level 97.1 %
Track quality 100.0 %
Test CRC 5ACFCD07
Copy CRC 5ACFCD07
Copy OK

Track 6

Filename K:\SoundTrack_Legends Of The Fall\ 06. James Horner – Alfred Moves To Helena.wav

Peak level 64.6 %
Track quality 100.0 %
Test CRC ED249827
Copy CRC ED249827
Copy OK

Track 7

Filename K:\SoundTrack_Legends Of The Fall\ 07. James Horner – Farewell,Descent Into Madness.wav

Peak level 100.0 %
Track quality 100.0 %
Test CRC 4533CBD4
Copy CRC 4533CBD4
Copy OK

Track 8

Filename K:\SoundTrack_Legends Of The Fall\ 08. James Horner – The Changing Seasons, Wild Horses, Tristan's Return.wav

Peak level 100.0 %
Track quality 100.0 %
Test CRC 56D5D420
Copy CRC 56D5D420
Copy OK

Track 9

Filename K:\SoundTrack_Legends Of The Fall\ 09. James Horner – The Wedding.wav

Peak level 48.6 %
Track quality 100.0 %
Test CRC 296ABA99
Copy CRC 296ABA99
Copy OK

Track 10

Filename K:\SoundTrack_Legends Of The Fall\ 10. James Horner – Isabel's Murder, Recollections Of Samuel.wav

Peak level 77.5 %
Track quality 99.9 %
Test CRC 3EFBE9BF
Copy CRC 3EFBE9BF
Copy OK

Track 11

Filename K:\SoundTrack_Legends Of The Fall\ 11. James Horner – Revenge.wav

Peak level 77.7 %
Track quality 100.0 %
Test CRC 57E23290
Copy CRC 57E23290
Copy OK

Track 12

Filename K:\SoundTrack_Legends Of The Fall\ 12. James Horner – Goodbyes.wav

Peak level 23.5 %
Track quality 100.0 %
Test CRC 7767FEEA
Copy CRC 7767FEEA
Copy OK

Track 13

Filename K:\SoundTrack_Legends Of The Fall\ 13. James Horner – Alfred, Tristan, The Colonol, The Legend ....wav

Peak level 99.3 %
Track quality 100.0 %
Test CRC D895D307
Copy CRC D895D307
Copy OK

No errors occurred

End of status report


Трекер:  [ 08-Июл-2011 02:05 ]

  

Скачать .torrent

Размер .torrent файла 15 KB


Размер: 335 MB
Хэш (hash) релиза: 7986a112851604016e1a2d86dfbc507963dfefb5

Еще никто не оставлял запись к записи скачать торрент Legends Of The Fall Легенды осени . Будь первым!

!Обратная связь