Скачать через торрент музыку Серьёзный человек A Serious Man бесплатно без регистрации torrent

Статистика раздачи
Размер:  157 MB   |    Зарегистрирован:  7 лет 4 месяца   |    .torrent скачан:  39 раз   |   
Раздают:  1  
   
загрузка...
 
Автор Сообщение

Galfimbul

avatar Galfimbul


Серьёзный человек / A Serious Man

Жанр: Score || Композитор: Carter Burwell || Год выпуска: 2009 || Страна: USA || Аудио кодек: FLAC || Тип рипа: tracks+.cue || Битрейт аудио: lossless
Продолжительность: 00:33:03 || Источник: what.cd

01 - A Marvel (01:16)
02 - Knock Knock (00:52)
03 - Green Lawns (00:51)
04 - The Canal (02:47)
05 - Somebody To Love (02:59)
[size=10]performed by Jefferson Airplane
06 - Blue Skies (00:39)
07 - Rabbi Sting (00:25)
08 - Thirst (00:49)
09 - Uncertainty (00:53)
10 - The Roof (01:43)
11 - Comin' Back to Me (05:16)
performed by Jefferson Airplane
12 - Rabbi Sting 2 (00:18)
13 - Thinking (00:32)
14 - The Mentaculus (01:21)
15 - Seriously (00:20)
16 - Canada (02:05)
17 - Today (03:02)
performed by Jefferson Airplane
18 - Sanctum (01:06)
19 - A Serious Man (02:45)
20 - Dem Milner's Trern (03:45)
performed by Sidor Belarsky
[/size]
 
Exact Audio Copy V0.99 prebeta 5 from 4. May 2009

EAC extraction logfile from 20. November 2009, 22:31

Various / A Serious Man

Used drive : PLEXTOR DVDR PX-755A Adapter: 3 ID: 0

Read mode : SecureUtilize accurate stream : YesDefeat audio cache : YesMake use of C2 pointers : No

Read offset correction : 30Overread into Lead-In and Lead-Out : NoFill up missing offset samples with silence : YesDelete leading and trailing silent blocks : NoNull samples used in CRC calculations : NoUsed interface : Native Win32 interface for Win NT & 2000Gap handling : Appended to previous track

Used output format : User Defined EncoderSelected bitrate : 768 kBit/sQuality : HighAdd ID3 tag : NoCommand line compressor : C:\Program Files\Exact Audio Copy\FLAC\FLAC.EXEAdditional command line options : -6 -V -T "ARTIST=%a" -T "TITLE=%t" -T "ALBUM=%g" -T "DATE=%y" -T "TRACKNUMBER=%n" -T "GENRE=%m" -T "COMMENT=%e" %s -o %d

TOC of the extracted CD

Track | Start | Length | Start sector | End sector --------------------------------------------------------- 1 | 0:00.00 | 1:16.04 | 0 | 5703 2 | 1:16.04 | 0:52.19 | 5704 | 9622 3 | 2:08.23 | 0:50.72 | 9623 | 13444 4 | 2:59.20 | 2:46.66 | 13445 | 25960 5 | 5:46.11 | 2:58.46 | 25961 | 39356 6 | 8:44.57 | 0:39.08 | 39357 | 42289 7 | 9:23.65 | 0:24.38 | 42290 | 44127 8 | 9:48.28 | 0:48.40 | 44128 | 47767 9 | 10:36.68 | 0:52.38 | 47768 | 51705 10 | 11:29.31 | 1:42.56 | 51706 | 59411 11 | 13:12.12 | 5:16.18 | 59412 | 83129 12 | 18:28.30 | 0:18.33 | 83130 | 84512 13 | 18:46.63 | 0:31.39 | 84513 | 86876 14 | 19:18.27 | 1:21.31 | 86877 | 92982 15 | 20:39.58 | 0:20.31 | 92983 | 94513 16 | 21:00.14 | 2:05.34 | 94514 | 103922 17 | 23:05.48 | 3:02.29 | 103923 | 117601 18 | 26:08.02 | 1:05.45 | 117602 | 122521 19 | 27:13.47 | 2:45.03 | 122522 | 134899 20 | 29:58.50 | 3:45.01 | 134900 | 151775

Track 1

Filename W:\torrent\rips\01 - A Marvel.wav

Pre-gap length 0:00:02.00

Peak level 96.7 % Track quality 99.8 % Test CRC D9104955 Copy CRC D9104955 Track not present in AccurateRip database Copy OK

Track 2

Filename W:\torrent\rips\02 - Knock Knock.wav

Pre-gap length 0:00:03.73

Peak level 29.5 % Track quality 100.0 % Test CRC A452FD29 Copy CRC A452FD29 Track not present in AccurateRip database Copy OK

Track 3

Filename W:\torrent\rips\03 - Green Lawns.wav

Pre-gap length 0:00:01.73

Peak level 51.5 % Track quality 100.0 % Test CRC E05B03C0 Copy CRC E05B03C0 Track not present in AccurateRip database Copy OK

Track 4

Filename W:\torrent\rips\04 - The Canal.wav

Pre-gap length 0:00:00.74

Peak level 97.7 % Track quality 100.0 % Test CRC 079EF130 Copy CRC 079EF130 Track not present in AccurateRip database Copy OK

Track 5

Filename W:\torrent\rips\05 - Somebody To Love.wav

Peak level 96.0 % Track quality 100.0 % Test CRC 55B38213 Copy CRC 55B38213 Track not present in AccurateRip database Copy OK

Track 6

Filename W:\torrent\rips\06 - Blue Skies.wav

Pre-gap length 0:00:03.74

Peak level 95.3 % Track quality 100.0 % Test CRC 55830A75 Copy CRC 55830A75 Track not present in AccurateRip database Copy OK

Track 7

Filename W:\torrent\rips\07 - Rabbi Sting.wav

Pre-gap length 0:00:03.74

Peak level 96.7 % Track quality 100.0 % Test CRC 995BFF92 Copy CRC 995BFF92 Track not present in AccurateRip database Copy OK

Track 8

Filename W:\torrent\rips\08 - Thirst.wav

Peak level 45.5 % Track quality 100.0 % Test CRC 0BC31F86 Copy CRC 0BC31F86 Track not present in AccurateRip database Copy OK

Track 9

Filename W:\torrent\rips\09 - Uncertainty.wav

Pre-gap length 0:00:04.74

Peak level 85.4 % Track quality 100.0 % Test CRC 086D2DEE Copy CRC 086D2DEE Track not present in AccurateRip database Copy OK

Track 10

Filename W:\torrent\rips\10 - The Roof.wav

Pre-gap length 0:00:03.74

Peak level 96.6 % Track quality 100.0 % Test CRC 44988690 Copy CRC 44988690 Track not present in AccurateRip database Copy OK

Track 11

Filename W:\torrent\rips\11 - Comin' Back to Me.wav

Peak level 86.5 % Track quality 100.0 % Test CRC E28C8AFC Copy CRC E28C8AFC Track not present in AccurateRip database Copy OK

Track 12

Filename W:\torrent\rips\12 - Rabbi Sting 2.wav

Pre-gap length 0:00:00.74

Peak level 96.8 % Track quality 100.0 % Test CRC 672F6882 Copy CRC 672F6882 Track not present in AccurateRip database Copy OK

Track 13

Filename W:\torrent\rips\13 - Thinking.wav

Peak level 35.6 % Track quality 99.6 % Test CRC B830D0B3 Copy CRC B830D0B3 Track not present in AccurateRip database Copy OK

Track 14

Filename W:\torrent\rips\14 - The Mentaculus.wav

Peak level 97.4 % Track quality 100.0 % Test CRC 01F52D84 Copy CRC 01F52D84 Track not present in AccurateRip database Copy OK

Track 15

Filename W:\torrent\rips\15 - Seriously.wav

Pre-gap length 0:00:03.74

Peak level 96.9 % Track quality 100.0 % Test CRC 916839E5 Copy CRC 916839E5 Track not present in AccurateRip database Copy OK

Track 16

Filename W:\torrent\rips\16 - Canada.wav

Peak level 96.8 % Track quality 100.0 % Test CRC 24D418CE Copy CRC 24D418CE Track not present in AccurateRip database Copy OK

Track 17

Filename W:\torrent\rips\17 - Today.wav

Peak level 81.8 % Track quality 100.0 % Test CRC D0084D4D Copy CRC D0084D4D Track not present in AccurateRip database Copy OK

Track 18

Filename W:\torrent\rips\18 - Sanctum.wav

Pre-gap length 0:00:04.74

Peak level 85.3 % Track quality 100.0 % Test CRC F9F1DB73 Copy CRC F9F1DB73 Track not present in AccurateRip database Copy OK

Track 19

Filename W:\torrent\rips\19 - A Serious Man.wav

Pre-gap length 0:00:01.74

Peak level 96.7 % Track quality 99.9 % Test CRC 195009F5 Copy CRC 195009F5 Track not present in AccurateRip database Copy OK

Track 20

Filename W:\torrent\rips\20 - Dem Milner's Trern.wav

Pre-gap length 0:00:03.74

Peak level 97.7 % Track quality 100.0 % Test CRC F97068BD Copy CRC F97068BD Track not present in AccurateRip database Copy OK

None of the tracks are present in the AccurateRip database

No errors occurred

End of status report
 
REM GENRE SoundtrackREM DATE 2009REM DISCID F007E714REM COMMENT "ExactAudioCopy v0.99pb5"PERFORMER "Various"TITLE "A Serious Man"FILE "01 - A Marvel.flac" FLAC TRACK 01 AUDIO TITLE "A Marvel" PERFORMER "A Marvel" INDEX 01 00:00:00 TRACK 02 AUDIO TITLE "Knock Knock" PERFORMER "Knock Knock" INDEX 00 01:12:06FILE "02 - Knock Knock.flac" FLAC INDEX 01 00:00:00 TRACK 03 AUDIO TITLE "Green Lawns" PERFORMER "Green Lawns" INDEX 00 00:50:21FILE "03 - Green Lawns.flac" FLAC INDEX 01 00:00:00 TRACK 04 AUDIO TITLE "The Canal" PERFORMER "Good Riddance" INDEX 00 00:49:73FILE "04 - The Canal.flac" FLAC INDEX 01 00:00:00FILE "05 - Somebody To Love.flac" FLAC TRACK 05 AUDIO TITLE "Somebody To Love" PERFORMER "Jefferson Airplane" INDEX 01 00:00:00 TRACK 06 AUDIO TITLE "Blue Skies" PERFORMER "Blue Skies" INDEX 00 02:54:47FILE "06 - Blue Skies.flac" FLAC INDEX 01 00:00:00 TRACK 07 AUDIO TITLE "Rabbi Sting" PERFORMER "Rabbi Sting" INDEX 00 00:35:09FILE "07 - Rabbi Sting.flac" FLAC INDEX 01 00:00:00FILE "08 - Thirst.flac" FLAC TRACK 08 AUDIO TITLE "Thirst" PERFORMER "Thirst" INDEX 01 00:00:00 TRACK 09 AUDIO TITLE "Uncertainty" PERFORMER "Uncertainty" INDEX 00 00:43:41FILE "09 - Uncertainty.flac" FLAC INDEX 01 00:00:00 TRACK 10 AUDIO TITLE "The Roof" PERFORMER "The Roof" INDEX 00 00:48:39FILE "10 - The Roof.flac" FLAC INDEX 01 00:00:00FILE "11 - Comin' Back to Me.flac" FLAC TRACK 11 AUDIO TITLE "Comin' Back to Me" PERFORMER "Jefferson Airplane" INDEX 01 00:00:00 TRACK 12 AUDIO TITLE "Rabbi Sting 2" PERFORMER "Rabbi Sting 2" INDEX 00 05:15:19FILE "12 - Rabbi Sting 2.flac" FLAC INDEX 01 00:00:00FILE "13 - Thinking.flac" FLAC TRACK 13 AUDIO TITLE "Thinking" PERFORMER "Thinking" INDEX 01 00:00:00FILE "14 - The Mentaculus.flac" FLAC TRACK 14 AUDIO TITLE "The Mentaculus" PERFORMER "The Mentaculus" INDEX 01 00:00:00 TRACK 15 AUDIO TITLE "Seriously" PERFORMER "Seriously" INDEX 00 01:17:32FILE "15 - Seriously.flac" FLAC INDEX 01 00:00:00FILE "16 - Canada.flac" FLAC TRACK 16 AUDIO TITLE "Canada" PERFORMER "Canada" INDEX 01 00:00:00FILE "17 - Today.flac" FLAC TRACK 17 AUDIO TITLE "Today" PERFORMER "Jefferson Airplane" INDEX 01 00:00:00 TRACK 18 AUDIO TITLE "Sanctum" PERFORMER "Sanctum" INDEX 00 02:57:30FILE "18 - Sanctum.flac" FLAC INDEX 01 00:00:00 TRACK 19 AUDIO TITLE "A Serious Man" PERFORMER "A Serious Man" INDEX 00 01:03:46FILE "19 - A Serious Man.flac" FLAC INDEX 01 00:00:00 TRACK 20 AUDIO TITLE "Dem Milner's Trern" PERFORMER "Sidor Belarsky" INDEX 00 02:41:04FILE "20 - Dem Milner's Trern.flac" FLAC INDEX 01 00:00:00



Трекер:  [ 08-Июл-2011 02:05 ]

  

Скачать .torrent

Размер .torrent файла 14 KB


Размер: 157 MB
Хэш (hash) релиза: f89bb4509b83e0a8ab3fb349cec47e897280972c

Торренты, похожие на Серьёзный человек A Serious Man скачать торрент

Форум Название Автор Размер S L Добавлен
Саундтреки к фильмам и мультфильмам (mp3) ·· (Score) Серьёзный человек / A Serious Man (Carter Burwell & VA) - 2009, MP3 (tracks), 320 kbps Galfimbul 8105760277 MB 0 0 1292265712

21:41

13-Дек-10

Еще никто не оставлял запись к записи скачать торрент Серьёзный человек A Serious Man . Будь первым!

!Обратная связь