Скачать через торрент музыку Изо всех сил Over The Top - 1987 бесплатно без регистрации torrent

Статистика раздачи
Размер:  248 MB   |    Зарегистрирован:  7 лет 4 месяца   |    .torrent скачан:  63 раза   |   
Раздают:  1  
   
загрузка...
 
Автор Сообщение

Galfimbul

avatar Galfimbul


Изо всех сил / Over The Top

Жанр: Soundtrack
Год выпуска диска: 1987
Производитель диска: USA
Аудио кодек: FLAC
Тип рипа: tracks+.cue
Битрейт аудио: lossless
Продолжительность: 00:37:04

01 - Sammy Hagar - Winner Takes It All (04:01)
02 - Robin Zander - In This Country (04:24)
03 - Larry Greene - Take It Higher (03:54)
04 - Big Trouble - All I Need Is You (03:58)
05 - Frank Stallone - Bad Nite (03:06)
06 - Kenny Loggins - Meet Me Half Way (03:41)
07 - Asia - Gypsy Soul (03:32)
08 - Giorgio Moroder - The Fight (Instrumental) (03:57)
09 - Larry Greene - Mind Over Matter (03:13)
10 - Eddie Money - I Will Be Strong (03:19)

Источник: waffles.fm
 
Exact Audio Copy V0.99 prebeta 4 from 23. January 2008

EAC extraction logfile from 24. March 2009, 7:29

Various / Over The Top

Used drive : CyberDrvCW078D CD-R/RW Adapter: 1 ID: 0

Read mode : SecureUtilize accurate stream : YesDefeat audio cache : YesMake use of C2 pointers : No

Read offset correction : 733Overread into Lead-In and Lead-Out : NoFill up missing offset samples with silence : YesDelete leading and trailing silent blocks : NoNull samples used in CRC calculations : YesUsed interface : Native Win32 interface for Win NT & 2000Gap handling : Appended to previous track

Used output format : User Defined EncoderSelected bitrate : 768 kBit/sQuality : HighAdd ID3 tag : NoCommand line compressor : C:\Program Files\Exact Audio Copy\Syrup\tools\flac.exeAdditional command line options : -V -8 -T "artist=%a" -T "title=%t" -T "album=%g" -T "date=%y" -T "tracknumber=%n" -T "genre=%m" %s

TOC of the extracted CD

Track | Start | Length | Start sector | End sector --------------------------------------------------------- 1 | 0:00.00 | 4:00.45 | 0 | 18044 2 | 4:00.45 | 4:23.40 | 18045 | 37809 3 | 8:24.10 | 3:54.17 | 37810 | 55376 4 | 12:18.27 | 3:58.23 | 55377 | 73249 5 | 16:16.50 | 3:06.37 | 73250 | 87236 6 | 19:23.12 | 3:41.03 | 87237 | 103814 7 | 23:04.15 | 3:32.22 | 103815 | 119736 8 | 26:36.37 | 3:56.70 | 119737 | 137506 9 | 30:33.32 | 3:12.45 | 137507 | 151951 10 | 33:46.02 | 3:18.53 | 151952 | 166854

Track 1

Filename C:\tmp\Various_-_Over_The_Top_-_01_-_Winner_Takes_It_All_(Sammy_Hagar).wav

Pre-gap length 0:00:02.00

Peak level 88.8 % Track quality 100.0 % Test CRC 0245214C Copy CRC 0245214C Accurately ripped (confidence 2) [C76FC999] Copy OK

Track 2

Filename C:\tmp\Various_-_Over_The_Top_-_02_-_In_This_Country_(Robin_Zander).wav

Pre-gap length 0:00:01.97

Peak level 86.9 % Track quality 100.0 % Test CRC 76020660 Copy CRC 76020660 Accurately ripped (confidence 2) [027B750E] Copy OK

Track 3

Filename C:\tmp\Various_-_Over_The_Top_-_03_-_Take_It_Higher_(Larry_Greene).wav

Pre-gap length 0:00:01.04

Peak level 93.3 % Track quality 100.0 % Test CRC DF5F1288 Copy CRC DF5F1288 Cannot be verified as accurate (confidence 5) [A28C5BF8], AccurateRip returned [E8F6BD38] Copy OK

Track 4

Filename C:\tmp\Various_-_Over_The_Top_-_04_-_All_I_Need_Is_You_(Big_Trouble).wav

Pre-gap length 0:00:01.36

Peak level 86.4 % Track quality 100.0 % Test CRC E7C10ABB Copy CRC E7C10ABB Cannot be verified as accurate (confidence 5) [27D14612], AccurateRip returned [BA8BC692] Copy OK

Track 5

Filename C:\tmp\Various_-_Over_The_Top_-_05_-_Bad_Nite_(Frank_Stallone).wav

Pre-gap length 0:00:01.26

Peak level 88.8 % Track quality 100.0 % Test CRC 383191DC Copy CRC 383191DC Cannot be verified as accurate (confidence 5) [8551B805], AccurateRip returned [4F6CFDA5] Copy OK

Track 6

Filename C:\tmp\Various_-_Over_The_Top_-_06_-_Meet_Me_Half_Way_(Kenny_Loggins).wav

Pre-gap length 0:00:00.89

Peak level 89.7 % Track quality 100.0 % Test CRC 4044C491 Copy CRC 4044C491 Accurately ripped (confidence 2) [CB431A58] Copy OK

Track 7

Filename C:\tmp\Various_-_Over_The_Top_-_07_-_Gypsy_Soul_(Asia).wav

Pre-gap length 0:00:01.76

Peak level 99.4 % Track quality 100.0 % Test CRC 3D2E7B95 Copy CRC 3D2E7B95 Accurately ripped (confidence 2) [7C4D55B8] Copy OK

Track 8

Filename C:\tmp\Various_-_Over_The_Top_-_08_-_The_Fight_(Instrumental)_(Giorgio_Moroder).wav

Pre-gap length 0:00:02.00

Peak level 93.6 % Track quality 100.0 % Test CRC CDDFB71B Copy CRC CDDFB71B Cannot be verified as accurate (confidence 5) [7DFB1299], AccurateRip returned [50E494B9] Copy OK

Track 9

Filename C:\tmp\Various_-_Over_The_Top_-_09_-_Mind_Over_Matter_(Larry_Greene).wav

Pre-gap length 0:00:01.06

Peak level 86.4 % Track quality 99.9 % Test CRC E8AA8D95 Copy CRC E8AA8D95 Cannot be verified as accurate (confidence 5) [F8889D57], AccurateRip returned [10A04D17] Copy OK

Track 10

Filename C:\tmp\Various_-_Over_The_Top_-_10_-_I_Will_Be_Strong_(Eddie_Money).wav

Pre-gap length 0:00:01.86

Peak level 76.0 % Track quality 100.0 % Test CRC 8A9B45CD Copy CRC 8A9B45CD Accurately ripped (confidence 2) [1E5114FA] Copy OK

5 track(s) accurately ripped 5 track(s) could not be verified as accurate

Some tracks could not be verified as accurate

No errors occurred

End of status report
 
REM DISCNUMBER 1REM TOTALDISCS 1REM GENRE SoundtrackREM DATE 1987REM DISCID 8B08B00AREM COMMENT "ExactAudioCopy v0.99pb4"FILE "01 - Winner Takes It All (Sammy Hagar).wav" WAVE TRACK 01 AUDIO INDEX 01 00:00:00 TRACK 02 AUDIO INDEX 00 03:58:47FILE "02 - In This Country (Robin Zander).wav" WAVE INDEX 01 00:00:00 TRACK 03 AUDIO INDEX 00 04:22:37FILE "03 - Take It Higher (Larry Greene).wav" WAVE INDEX 01 00:00:00 TRACK 04 AUDIO INDEX 00 03:52:65FILE "04 - All I Need Is You (Big Trouble).wav" WAVE INDEX 01 00:00:00 TRACK 05 AUDIO INDEX 00 03:57:03FILE "05 - Bad Nite (Frank Stallone).wav" WAVE INDEX 01 00:00:00 TRACK 06 AUDIO INDEX 00 03:05:45FILE "06 - Meet Me Half Way (Kenny Loggins).wav" WAVE INDEX 01 00:00:00 TRACK 07 AUDIO INDEX 00 03:39:21FILE "07 - Gypsy Soul (Asia).wav" WAVE INDEX 01 00:00:00 TRACK 08 AUDIO INDEX 00 03:30:22FILE "08 - The Fight (Instrumental) (Giorgio Moroder).wav" WAVE INDEX 01 00:00:00 TRACK 09 AUDIO INDEX 00 03:55:65FILE "09 - Mind Over Matter (Larry Greene).wav" WAVE INDEX 01 00:00:00 TRACK 10 AUDIO INDEX 00 03:10:55FILE "10 - I Will Be Strong (Eddie Money).wav" WAVE INDEX 01 00:00:00



Трекер:  [ 08-Июл-2011 02:05 ]

  

Скачать .torrent

Размер .torrent файла 20 KB


Размер: 248 MB
Хэш (hash) релиза: f34b7f834661c3415f953e4837e30c8872e7644d

Еще никто не оставлял запись к записи скачать торрент Изо всех сил Over The Top - 1987 . Будь первым!

!Обратная связь