Скачать через торрент Вики-донор Донор Вики Фильм бесплатно в хорошем качестве torrent

Скачивайте на UnionPeer.org фильмы через торрент без регистрации. Новинки кино в хорошем качестве через торрент. На UnionPeer.org можно скачать через торрент фильмы 2014 и 2015 годов. Самые новые фильмы.

Скачать торрент Вики-донор Донор Вики бесплатно через .torrent фильм мультфильм сериал

Статистика раздачи
Размер:  1.38 GB   |    Зарегистрирован:  11 лет   |    .torrent скачан:  29 раз   |   
Раздают:  1  
 

Скачать Вики-донор / Донор Вики / Vicky Donor (Шуджит Сиркар / Shoojit Sircar) [2012, Индия, Комедия, DVDRip] VO (zamez)+ Original [Hindi] через torrent

 
 
Автор Сообщение

Galfimbul

avatar Galfimbul


Донор Вики / Vicky Donor
Страна: Индия
Жанр: мелодрама, комедия
Год выпуска: 2012
Продолжительность: 02:05:32
Перевод: Любительский (одноголосый) [zamez]
Оригинальная аудиодорожка: Hindi
Cубтитры: нет
Режиссер: Шуджит Сиркар / Shoojit Sircar
В ролях: Аюшманн Хуррана (Vicky Arora), Ями Гаутам (Ashima Roy), Анну Капур (Dr. Baldev Chaddha), Долли Ахлувалиа (Dolly), Джон Абрахам, Тарун Бали (Mr. Mehra), Кришна Сингх Бишт (Gulli), Jayanta Das (Ashima Roy's father), Kamlesh Gill (Vicky's Grandmother), Пуджа Гупта (Shweta), Бхупеш Пандья (Dr. Chadhhas Assistant)
Описание:
История об отношениях между парнем пенджаби и девушкой бенгалкой. Фильм деликатно затрагивает серьезную проблему, которая до сих пор является «табу» в индийском обществе: донорство спермы...
Рейтинг
kinopoisk.ru: 6.864 (22)
imdb.com: 7.90 (9 102)
Качество видео: DVDRip
Формат видео: AVI
Видео: XviD; 720x304 (2.35:1); 1205 Kbps; 23,976 fps; 0,230 bpp
Аудио №1: AC3; 224 Kbps; CBR; 2 ch; 16 bit,48 kHz [Russian]
Аудио №2: MP3; 128 Kbps; CBR; 2 ch ,32.0 kHz [Hindi]

General
Complete name : D:\Торенты\Vicky.Donor.2012.DVDRip.L1.avi
Format : AVI
Format/Info : Audio Video Interleave
File size : 1.38 GiB
Duration : 2h 5mn
Overall bit rate : 1 571 Kbps
Writing application : VirtualDubMod 1.5.10.3 | www.virtualdub-fr.org || (build 2550/release)
Writing library : VirtualDubMod build 2550/release
Video
ID : 0
Format : MPEG-4 Visual
Format profile : Advanced Simple@L5
Format settings, BVOP : 1
Format settings, QPel : No
Format settings, GMC : No warppoints
Format settings, Matrix : Custom
Codec ID : XVID
Codec ID/Hint : XviD
Duration : 2h 5mn
Bit rate : 1 206 Kbps
Width : 720 pixels
Height : 304 pixels
Display aspect ratio : 2.35:1
Frame rate : 23.976 fps
Color space : YUV
Chroma subsampling : 4:2:0
Bit depth : 8 bits
Scan type : Progressive
Compression mode : Lossy
Bits/(Pixel*Frame) : 0.230
Stream size : 1.06 GiB (77%)
Writing library : XviD 1.2.1 (UTC 2008-12-04)
Audio #1
ID : 1
Format : AC-3
Format/Info : Audio Coding 3
Mode extension : CM (complete main)
Codec ID : 2000
Duration : 2h 5mn
Bit rate mode : Constant
Bit rate : 224 Kbps
Channel(s) : 2 channels
Channel positions : Front: L R
Sampling rate : 48.0 KHz
Bit depth : 16 bits
Compression mode : Lossy
Stream size : 201 MiB (14%)
Alignment : Split accross interleaves
Interleave, duration : 42 ms (1.00 video frame)
Interleave, preload duration : 500 ms
Audio #2
ID : 2
Format : MPEG Audio
Format version : Version 1
Format profile : Layer 3
Mode : Joint stereo
Mode extension : MS Stereo
Codec ID : 55
Codec ID/Hint : MP3
Duration : 2h 5mn
Bit rate mode : Constant
Bit rate : 128 Kbps
Channel(s) : 2 channels
Sampling rate : 32.0 KHz
Compression mode : Lossy
Stream size : 115 MiB (8%)
Alignment : Aligned on interleaves
Interleave, duration : 42 ms (1.00 video frame)
Interleave, preload duration : 504 ms



Внимание! AdBlock блокирует показ скриншотов, все вопросы к разработчикам )))
Трекер:  [ 01-Мар-2013 16:50 ]

  

Скачать .torrent

Размер .torrent файла 14 KB


Размер: 1.38 GB
Хэш (hash) релиза: fb4c340c2ff11f223d1e79c8a8402448cae2ea3f
Подписка на обновления:

Еще никто не оставлял запись к записи скачать торрент Вики-донор Донор Вики . Будь первым!

!Обратная связь