Скачать через торрент музыку Basshunter - Bass Generation бесплатно без регистрации torrent

Статистика раздачи
Размер:  691 MB   |    Зарегистрирован:  10 лет   |    .torrent скачан:  167 раз   |   
Раздают:  1  
 

Скачать (Eurodance/House) Basshunter - Bass Generation (LTD) - 2009, FLAC (image+.cue), lossless через torrent

 
 
Автор Сообщение

Phoenix

avatar Phoenix


Basshunter - Bass Generation 2009




Жанр: Eurodance/House
Год выпуска диска: 2009
Производитель диска: UK, Har2Beat Records
Аудио кодек: FLAC
Тип рипа: image+.cue
Битрейт аудио: lossless
Продолжительность: 0:54:03.62 + 0:46:44.01

Трэклист:

Disc: 1
1. Every Morning
2. I Promised Myself
3. Why
4. I Will Learn To Love Again Feat. Stunt
5. Don't Walk Away
6. I Still Love
7. Day & Night
8. I Can't Deny Feat, Lauren
9. Far From Home
10. I Know U Know
11. On Our Side
12. Can You
13. Plane To Spain
14. Every Morning (Michael Mind Remix Edit)

Disc: 2
1. Now You're Gone Feat. DJ Mental (DJ Alex Extended Mix)
2. All I Ever Wanted (Ultra DJs Remix)
3. Angel In The Night (Headhunters Remix)
4. I Miss You (Hyperzone Remix)
5. Please Don't Go (Bad Behaviour Remix)
6. Walk On Water (Ultra DJs Remix)
7. Every Morning (Raindropz! Remix)
8. Camilla (Swedish Version)
9. Without Stars (Swedish Version)
Exact Audio Copy V0.99 prebeta 5 from 4. May 2009
Отчёт EAC об извлечении, выполненном 25. декабря 2009, 7:34
Basshunter / Bass Generation CD1
Дисковод: Optiarc DVD RW AD-7173S Adapter: 3 ID: 0
Режим чтения : Достоверность
Использование точного потока : Да
Отключение кэша аудио : Да
Использование указателей C2 : Нет
Коррекция смещения при чтении : 48
Способность читать области Lead-in и Lead-out : Нет
Заполнение пропущенных сэмплов тишиной : Да
Удаление блоков с тишиной в начале и конце : Нет
При вычислениях CRC использовались нулевые сэмплы : Да
Интерфейс : Установленный внешний ASPI-интерфейс
Выходной формат : Пользовательский кодировщик
Выбранный битрейт : 128 kBit/s
Качество : Высокий
Добавление ID3-тэга : Нет
Утилита сжатия : C:\Program Files\Exact Audio Copy\FLAC\FLAC.EXE
Дополнительные параметры : -8 -V -T "ARTIST=%a" -T "TITLE=%t" -T "ALBUM=%g" -T "DATE=%y" -T "TRACKNUMBER=%n" -T "GENRE=%m" -T "COMMENT=%e" %s -o %d
TOC извлечённого CD
Трек | Старт | Длительность | Начальный сектор | Конечный сектор
---------------------------------------------------------------------
1 | 0:00.00 | 3:19.15 | 0 | 14939
2 | 3:19.15 | 2:37.62 | 14940 | 26776
3 | 5:57.02 | 3:12.18 | 26777 | 41194
4 | 9:09.20 | 3:07.11 | 41195 | 55230
5 | 12:16.31 | 3:02.09 | 55231 | 68889
6 | 15:18.40 | 3:33.26 | 68890 | 84890
7 | 18:51.66 | 2:55.37 | 84891 | 98052
8 | 21:47.28 | 4:00.02 | 98053 | 116054
9 | 25:47.30 | 4:10.43 | 116055 | 134847
10 | 29:57.73 | 2:45.50 | 134848 | 147272
11 | 32:43.48 | 3:55.01 | 147273 | 164898
12 | 36:38.49 | 2:25.11 | 164899 | 175784
13 | 39:03.60 | 3:42.71 | 175785 | 192505
14 | 42:46.56 | 11:16.66 | 192506 | 243271
15 | 56:35.47 | 6:48.40 | 254672 | 285311
Характеристики диапазона извлечения и сообщения об ошибках
Выбранный диапазон
Имя файла E:\ЕАС\Basshunter - Bass Generation (2009) (Loosles)\CD 1\Basshunter - Bass Generation CD1.wav
Пиковый уровень 100.0 %
Качество диапазона 100.0 %
CRC теста 5D962BDF
CRC копии 5D962BDF
Копирование... OK
Exact Audio Copy V0.99 prebeta 5 from 4. May 2009
Отчёт EAC об извлечении, выполненном 25. декабря 2009, 8:34
Basshunter / Bass Generation CD 2
Дисковод: Optiarc DVD RW AD-7173S Adapter: 3 ID: 0
Режим чтения : Достоверность
Использование точного потока : Да
Отключение кэша аудио : Да
Использование указателей C2 : Нет
Коррекция смещения при чтении : 48
Способность читать области Lead-in и Lead-out : Нет
Заполнение пропущенных сэмплов тишиной : Да
Удаление блоков с тишиной в начале и конце : Нет
При вычислениях CRC использовались нулевые сэмплы : Да
Интерфейс : Установленный внешний ASPI-интерфейс
Выходной формат : Пользовательский кодировщик
Выбранный битрейт : 128 kBit/s
Качество : Высокий
Добавление ID3-тэга : Нет
Утилита сжатия : C:\Program Files\Exact Audio Copy\FLAC\FLAC.EXE
Дополнительные параметры : -8 -V -T "ARTIST=%a" -T "TITLE=%t" -T "ALBUM=%g" -T "DATE=%y" -T "TRACKNUMBER=%n" -T "GENRE=%m" -T "COMMENT=%e" %s -o %d
TOC извлечённого CD
Трек | Старт | Длительность | Начальный сектор | Конечный сектор
---------------------------------------------------------------------
1 | 0:00.00 | 5:43.30 | 0 | 25754
2 | 5:43.30 | 5:33.17 | 25755 | 50746
3 | 11:16.47 | 5:37.65 | 50747 | 76086
4 | 16:54.37 | 5:35.45 | 76087 | 101256
5 | 22:30.07 | 6:45.24 | 101257 | 131655
6 | 29:15.31 | 5:19.69 | 131656 | 155649
7 | 34:35.25 | 4:54.08 | 155650 | 177707
8 | 39:29.33 | 3:22.53 | 177708 | 192910
9 | 42:52.11 | 3:51.65 | 192911 | 210300
Характеристики диапазона извлечения и сообщения об ошибках
Выбранный диапазон
Имя файла E:\ЕАС\Basshunter - Bass Generation (2009) (Loosles)\CD 2\Basshunter - Bass Generation CD 2.wav
Пиковый уровень 100.0 %
Качество диапазона 100.0 %
CRC теста 9D88EDC9
CRC копии 9D88EDC9
Копирование... OK
Не забываем


Внимание! AdBlock блокирует показ скриншотов, все вопросы к разработчикам )))
Трекер:  [ 20-Дек-2010 12:24 ]

  

Скачать .torrent

Размер .torrent файла 15 KB


Размер: 691 MB
Хэш (hash) релиза: 14409ff325bd8b69381c66d9cab2be26d0a3531b

Еще никто не оставлял запись к записи скачать торрент Basshunter - Bass Generation . Будь первым!

!Обратная связь