Скачать порно через торрент Flesh Hunter 6 Охотник за плотью 6 UnionPeer.org бесплатно онлайн HD качество

Скачать новое порно 2015, 2014 новинки через торрент UnionPeer.org

Порно торрент бесплатно ЮнионПир.орг

Статистика раздачи
Размер:  4.36 GB   |    Зарегистрирован:  10 лет   |    .torrent скачан:  364 раза   |   
Раздают:  1   Качают:  1  
 

Скачать Flesh Hunter 6 / Охотник за плотью 6 (Jules Jordan Video) [2003 г., Gonzo, DT, Anal, A2M, DP, Swallow, Teens/Young Women, Hardcore, DVD5] (April Flowers, Ayana Angel, Brianna Blaze, Friday, Gina Lynn, Nautica Thorn) через torrent

 
 
Автор Сообщение

spider91

avatar spider91


Flesh Hunter 6 / Охотник за плотью 6

Год производства: 2003 г.
Released on DVD: January 25, 2006
Страна: USA
Жанр: Gonzo, All Sex, Blowjob, Deep Throat, Anal, Gaping, Ass To Mouth, Multiple Penetrations, Facial, Swallow, CumSwap, Fetish, Lingerie/Stockings, Heels, Bondage, BDSM, Teens/Young Women, Big Ass, Big Tits, Natural Breasts, One-on-One, Threesomes, Big Cock, Hardcore, Straight, Flesh Hunter Series
Продолжительность: 02:36:10 (фильм) + 00:25:21 (по жанрам) + 00:15:07 (др. бонусы)

Режиссер: Jules Jordan
Студия: Jules Jordan Video

Язык: Английский

В ролях:
Actresses-
April Flowers (as April) [Anal Facial]
Ayana Angel [Anal Facial DP Swallow IR]
Brianna Blaze [Anal Facial DP A2M]
Friday [Anal Facial Bald CumSwap]
Gina Lynn [Bald CumSwap Swallow]
Nautica Thorn [Facial Bald]

Actors- John Strong, Jules Jordan, Mark Wood, Mr. Pete, Toni Ribas, Travis Knight
Scene 1. Friday, Gina Lynn, Travis Knight
Scene 2. April Flowers, Jules Jordan
Scene 3. Ayana Angel, Mark Wood, Mr. Pete
Scene 4. Nautica Thorn, Jules Jordan
Scene 5. Brianna Blaze, John Strong, Toni Ribas
Описание: Lovely Nautica is dressed like a horny Eskimo before getting down to business in Jules Jordan’s latest flesh hunt. With ebony princess Ayana and sweetie April’s second screen anal scene ever. The DVD version’s a 2 hour and 36 minute director’s cut with an additional 15 minutes of bonus footage. Standard features include multiple chapters per scene, photo galleries, motion chapter menus, a complete cast list, filmographies and, of course, the fetish menu - which indexes your favorite fetishes, such as blowjobs, cumshots, anal sex, tease clips, and many more! Меню: Есть
Доп. материалы и бонусы: http://www.adultdvdemart.com/-/adult_dvd_product_info/filmid=STDV15163.html/-D77D45A8-572D-424E-883F-575AA5B2D48E

Качество видео: DVD5
Аудио кодек: AC3
Видео: 9800 Kbps, 29.970 fps, 720*480 (or 640*480 / 4:3), MPG2 = MPEG 2 (SVCD/DVD)
Аудио: 192 Kbps, 48000 Hz, 2 ch, 0x2000 = AC3 DVM [0x80]
Общее
Полное имя : Flesh Hunter 6 (2003) DVD5\VIDEO_TS\VTS_01_1.VOB
Формат : MPEG-PS
Размер файла : 1024 Мбайт
Продолжительность : 46 м.
Режим общего битрейта : Переменный
Общий поток : 3112 Кбит/сек

Видео
Идентификатор : 224 (0xE0)
Формат : MPEG Video
Версия формата : Version 2
Профиль формата : Main@Main
Параметр BVOP формата : Да
Параметр матрицы формата : По умолчанию
Параметр GOP формата : M=5, N=26
Продолжительность : 46 м.
Вид битрейта : Переменный
Битрейт : 2858 Кбит/сек
Максимальный битрейт : 9800 Кбит/сек
Ширина : 720 пикселей
Высота : 480 пикселей
Соотношение сторон : 4:3
Частота кадров : 29,970 кадров/сек
Стандарт вещания : NTSC
Цветовое пространство : YUV
Субдискретизация насыщенности : 4:2:0
Битовая глубина : 8 бит
Тип развёртки : Чересстрочная
Порядок развёртки : Верхнее поле первое
Метод сжатия : С потерями
Бит/(Пиксели*Кадры) : 0.276
TimeCode_FirstFrame : 01:00:13;00
TimeCode_Source : Group of pictures header
Размер потока : 940 Мбайт (92%)
Основные цвета : BT.601 NTSC
Характеристики трансфера : BT.601
Коэффициенты матрицы : BT.601

Аудио
Идентификатор : 189 (0xBD)-128 (0x80)
Формат : AC-3
Формат/Информация : Audio Coding 3
Расширение режима : CM (complete main)
Параметр Endianness формата : Big
Режим смешивания : DVD-Video
Продолжительность : 46 м.
Вид битрейта : Постоянный
Битрейт : 192 Кбит/сек
Каналы : 2 канала
Расположение каналов : Front: L R
Частота : 48,0 КГц
Битовая глубина : 16 бит
Метод сжатия : С потерями
Размер потока : 63,2 Мбайт (6%)

Меню


Внимание! AdBlock блокирует показ скриншотов, все вопросы к разработчикам )))
Трекер:  [ 20-Мар-2013 01:12 ]

  

Скачать .torrent

Размер .torrent файла 12 KB


Размер: 4.36 GB
Хэш (hash) релиза: f33ba9996c0544f1de891e868152449262a8e0fa

Торренты, похожие на Flesh Hunter 6 Охотник за плотью 6 скачать торрент

Форум Название Автор Размер S L Добавлен
Фильмы без сюжета 1991-2010 / All Sex & Amateur 1991-2010 ·· Flesh Hunter 6 / Охотник За Плотью 6 (Jules Jordan, Jules Jordan Video) [2006 г., Anal, Gonzo, DP, WEB-DL] (April Flowers, Ayana Angel, Briana Blaze, Friday, Gina Lynn, Nautica Thorn) [Split Scenes] [540p] Galfimbul 21377582031.99 GB 0 0 1367484904

11:55

2-Май-13

Фильмы без сюжета 1991-2010 / All Sex & Amateur 1991-2010 ·· Flesh Hunter 6 / Охотник За Плотью 6 (Jules Jordan, Jules Jordan Video) [2006 г., Anal, Gonzo, DP, WEB-DL] (April Flowers, Ayana Angel, Briana Blaze, Friday, Gina Lynn, Nautica Thorn) [Split Scenes] [720p] Galfimbul 42271059973.94 GB 0 0 1367484609

11:50

2-Май-13

Фильмы без сюжета 1991-2010 / All Sex & Amateur 1991-2010 ·· Flesh Hunter 6 / Охотник За Плотью 6 (Jules Jordan, Jules Jordan Video) [2006 г., Anal, Gonzo, DP, WEB-DL] (April Flowers, Ayana Angel, Briana Blaze, Friday, Gina Lynn, Nautica Thorn) [Split Scenes] [1080p] Galfimbul 83638036967.79 GB 3 0 1367484607

11:50

2-Май-13

Гонзо-фильмы 2011-2022 / Gonzo 2011-2022 ·· Flesh Hunter 6 / Охотник за плотью 6(Jules Jordan Productions,Jules Jordan) [2004 г., Gonzo, DVDRip] Galfimbul 14696161281.37 GB 1 2 1364381576

13:52

27-Мар-13

bot

Топик был перенесен в форум Фильмы без сюжета

Перенес spider91

Хотите добавить комментарий к записи скачать торрент Flesh Hunter 6 Охотник за плотью 6

!Обратная связь