Скачать порно через торрент Perfect Pink 2: Purrfection Идеально розовые 2 UnionPeer.org бесплатно онлайн HD качество

Скачать новое порно 2015, 2014 новинки через торрент UnionPeer.org

Порно торрент бесплатно ЮнионПир.орг

Статистика раздачи
Размер:  1.08 GB   |    Зарегистрирован:  10 лет   |    .torrent скачан:  400 раз   |   
Раздают:  1  
 

Скачать Perfect Pink 2: Purrfection / Идеально розовые 2 (Jill Kelly, Eurotique Entertainment) [1999 г., Feature, All Sex, DVDRip, Alexandra Nice , Wendi Knight , Shayla LaVeaux ] через torrent

 
 
Автор Сообщение

Supportive

avatar Supportive


Perfect Pink 2: Purrfection / Идеально розовые 2
Год производства: 1999 г.
Страна: США|USA
Жанр: Feature, All Sex
Продолжительность: 01:29:30
Язык: Английский

Режиссер: Jill Kelly
Студия: Eurotique Entertainment

Описание: 2-я часть из розовой серии.
General
Format : AVI
Format/Info : Audio Video Interleave
File size : 1.08 GiB
Duration : 1h 29mn
Overall bit rate : 1 733 Kbps
Writing library : Boilsoft AVI tool build 30012/release
Video #0
ID : 0
Format : AVC
Format/Info : Advanced Video Codec
Format profile : [email protected]
Format settings, CABAC : Yes
Format settings, ReFrames : 2 frames
Codec ID : H264
Duration : 1h 29mn
Bit rate : 1 594 Kbps
Width : 576 pixels
Height : 432 pixels
Display aspect ratio : 4:3
Frame rate : 29.970 fps
Resolution : 24 bits
Colorimetry : 4:2:0
Scan type : Progressive
Bits/(Pixel*Frame) : 0.214
Stream size : 1 020 MiB (92%)
Audio #1
ID : 1
Format : MPEG Audio
Format version : Version 1
Format profile : Layer 3
Codec ID : 55
Codec ID/Hint : MP3
Duration : 1h 29mn
Bit rate mode : Constant
Bit rate : 128 Kbps
Channel(s) : 2 channels
Sampling rate : 48.0 KHz
Resolution : 16 bits
Stream size : 81.9 MiB (7%)
Alignment : Split accross interleaves
Interleave, duration : 33 ms (1.00 video frame)
Interleave, preload duration : 500 ms
Writing library : LAMELAME_MAJOR_VERSI
Качество видео: DVDRip
Формат видео: AVI
Видео кодек: H.264/AVC
Аудио кодек: MP3
Видео: MPEG4 Video 576x432 29.97fps
Аудио: 48000Hz stereo 128Kbps



Внимание! AdBlock блокирует показ скриншотов, все вопросы к разработчикам )))
Трекер:  [ 05-Апр-2013 00:34 ]

  

Скачать .torrent

Размер .torrent файла 11 KB


Размер: 1.08 GB
Хэш (hash) релиза: d93b50286d59cb0647325c8a1bdaa5105f8b758e

bot

Топик был перенесен в форум Фильмы без сюжета

Перенес Supportive

Хотите добавить комментарий к записи скачать торрент Perfect Pink 2: Purrfection Идеально розовые 2

!Обратная связь