Скачать через торрент Клетка La cage Фильм бесплатно в хорошем качестве torrent

Скачивайте на UnionPeer.org фильмы через торрент без регистрации. Новинки кино в хорошем качестве через торрент. На UnionPeer.org можно скачать через торрент фильмы 2014 и 2015 годов. Самые новые фильмы.

Скачать торрент Клетка La cage бесплатно через .torrent фильм мультфильм сериал

Статистика раздачи
Размер:  744 MB   |    Зарегистрирован:  10 лет   |    .torrent скачан:  14 раз   |   
Раздают:  1  
 

Скачать Клетка / La cage / The Cage (Пьер Гранье-Дефер / Pierre Granier-Deferre) [1975, Франция, драма, DVDRip] AVO Янкелевич через torrent

 
 
Автор Сообщение

Galfimbul

avatar Galfimbul


Клетка / La cage / The Cage
Страна: Франция
Жанр: драма
Год выпуска: 1975
Продолжительность: 01:26:20
Перевод: Авторский (одноголосый закадровый) - Роман Янкелевич
Cубтитры: нет
Режиссер: Пьер Гранье-Дефер / Pierre Granier-Deferre
В ролях: Лино Вентура, Ингрид Тулин, Вильям Сабатье, Софи Сам, Жан Тюрлье, Доминик Зарди
Описание: Элен после ухода своего мужа Жюльена остро ощущает собственное одиночество и тоску, предчувствуя близкую старость. Она решает заманить Жюльена к себе в дом и посадить в своеобразную клетку в подвале, наивно надеясь таким абсурдным способом заставить его вернуться в семью. Или же Элен просто хочет отомстить, отыграться за всю свою несостоявшуюся жизнь, а не только за тот неудачный брак, в котором неизвестно кто из них был больше виноват.
Психологическая драма французского режиссёра Пьера Гранье-Дефера привлекает не интригующими поворотами сюжета в этом «семейном полудетективе», не иносказательностью поведанной истории, из которой при желании можно было бы сделать язвительную притчу в духе Марко Феррери. Прежде всего, эта лента интересна довольно запутанными человеческими взаимоотношениями между двумя главными героями в тонком и деликатном по анализу чувств, живом и искреннем исполнении актёров Лино Вентуры и Ингрид Тулин.

Сэмпл: http://sendfile.su/438225

Качество видео: DVDRip - рип с DVD5 (Custom), спасибо makc365
Формат видео: AVI

Видео: XviD, 672x352 (1.91:1), 25 fps, 1098 kbps avg
Аудио: MP3, 32 kHz, 96.00 kbps, 2 ch
Общее
Полное имя : C:\RuTracker\Kletka.1975.XviD.DVDRip.Inch.avi
Формат : AVI
Формат/Информация : Audio Video Interleave
Размер файла : 744 Мбайт
Продолжительность : 1 ч. 26 м.
Общий поток : 1204 Кбит/сек
Название фильма : Kletka.1975.XviD.DVDRip.Inch
Режиссёр : Inch
Жанр : Drama
Программа кодирования : VirtualDubMod 1.5.10.3 | www.virtualdub-fr.org || (build 2550/release)
Формат оригинала/Имя : Movie
Правообладатель : RuTracker
Примечание : AVO

Видео
Идентификатор : 0
Формат : MPEG-4 Visual
Профиль формата : Advanced Simple@L5
Параметр BVOP формата : 1
Параметр QPel формата : Нет
Параметр GMC формата : Без точки перехода
Параметр матрицы формата : Выборочная
Идентификатор кодека : XVID
Идентификатор кодека/Подсказка : XviD
Продолжительность : 1 ч. 26 м.
Битрейт : 1098 Кбит/сек
Ширина : 672 пикс.
Высота : 352 пикс.
Соотношение сторон : 1,909
Частота кадров : 25,000 кадр/сек
Цветовое пространство : YUV
Подвыборка цветности : 4:2:0
Битовая глубина : 8 бит
Тип развёртки : Прогрессивная
Метод сжатия : С потерями
Бит/(Пиксели*Кадры) : 0.186
Размер потока : 678 Мбайт (91%)
Библиотека кодирования : XviD 72

Аудио
Идентификатор : 1
Формат : MPEG Audio
Версия формата : Version 1
Профиль формата : Layer 3
Режим : Joint stereo
Расширение режима : MS Stereo
Идентификатор кодека : 55
Идентификатор кодека/Подсказка : MP3
Продолжительность : 1 ч. 26 м.
Вид битрейта : Постоянный
Битрейт : 96,0 Кбит/сек
Канал(ы) : 2 канала(ов)
Частота : 32,0 КГц
Метод сжатия : С потерями
Размер потока : 59,3 Мбайт (8%)
Выравнивание : Соединение по промежуткам
Продолжительность промежутка : 40 мс. (1,00 видеокадр)
Время предзагрузки промежутка : 504 ms
Библиотека кодирования : LAME3.98r
Настройки программы : -m j -V 4 -q 0 -lowpass 15.1 -b 96


Внимание! AdBlock блокирует показ скриншотов, все вопросы к разработчикам )))
Трекер:  [ 07-Апр-2013 16:15 ]

  

Скачать .torrent

Размер .torrent файла 15 KB


Размер: 744 MB
Хэш (hash) релиза: ae596ac18461257dcc1b806780f988a0a420a923
Подписка на обновления:

Еще никто не оставлял запись к записи скачать торрент Клетка La cage . Будь первым!

!Обратная связь