Скачать порно через торрент [VFacademy.com] Michelle Moist UnionPeer.org бесплатно онлайн HD качество

Скачать новое порно 2015, 2014 новинки через торрент UnionPeer.org

Порно торрент бесплатно ЮнионПир.орг

Статистика раздачи
Размер:  429 MB   |    Зарегистрирован:  10 лет   |    .torrent скачан:  403 раза   |   
Раздают:  1  
 

Скачать [VFacademy.com] Michelle Moist (Sensual send off...) [04.04.2013 г., Uniforms, Solo, Masturbation, Schoolgirl, Upskirt, 720p] через torrent

 
 
Автор Сообщение

Supportive

avatar Supportive


[VFacademy.com]
Michelle Moist Sensual send off...
[04.04.2013 г.]


Имя актрисы: Michelle Moist
Название ролика: Sensual send off...
Подсайт и сайт: VFacademy.com

Год производства: 2013 г.
Жанр: Uniforms, Solo, Masturbation, Schoolgirl, Upskirt
Продолжительность: 00:13:24

Тип HD видео: 720p
Формат видео: WMV
Видео кодек: Windows Media
Аудио кодек: WMA
Видео: 25.000 fps , 4 400 Kbps , 1280x720
Аудио: 63 kbps, 48 kHz, stereo Low Delay 1-pass CBR

Описание:
The time has come for Michelle to leave VF Academy, leaving behind fond memories.
But wait, she needs one last session with 'janitor', flashing her nyloned legs and smooth pussy through sheer Academy panties!
Cocks out for Michelle!
General
Complete name : Michelle Moist Sensual send off....wmv
Format : Windows Media
File size : 429 MiB
Duration : 13mn 24s
Overall bit rate mode : Constant
Overall bit rate : 4 471 Kbps
Maximum Overall bit rate : 4 500 Kbps
Encoded date : UTC 2013-03-26 20:47:30.992

Video
ID : 2
Format : VC-1
Format profile : Main
Codec ID : WMV3
Codec ID/Info : Windows Media Video 9
Codec ID/Hint : WMV3
Description of the codec : VC-1 - VC-1 Main Profile
Duration : 13mn 24s
Bit rate mode : Constant
Bit rate : 4 400 Kbps
Width : 1 280 pixels
Height : 720 pixels
Display aspect ratio : 16:9
Frame rate : 25.000 fps
Bit depth : 8 bits
Scan type : Progressive
Compression mode : Lossy
Bits/(Pixel*Frame) : 0.191
Stream size : 422 MiB (98%)
Language : English (GB)

Audio
ID : 1
Format : WMA
Format version : Version 2
Codec ID : 161
Codec ID/Info : Windows Media Audio
Description of the codec : Windows Media Audio 9.2 - 63 kbps, 48 kHz, stereo Low Delay 1-pass CBR
Duration : 13mn 24s
Bit rate mode : Constant
Bit rate : 63.0 Kbps
Channel(s) : 2 channels
Sampling rate : 48.0 KHz
Bit depth : 16 bits
Stream size : 6.04 MiB (1%)
Language : English (GB)


Внимание! AdBlock блокирует показ скриншотов, все вопросы к разработчикам )))
Трекер:  [ 06-Апр-2013 23:50 ]

  

Скачать .torrent

Размер .torrent файла 17 KB


Размер: 429 MB
Хэш (hash) релиза: 2d5e603d5d6c051a506da47326e58cc1c8750ab0

bot

Топик был перенесен в форум Сайтрипы

Перенес Supportive

Хотите добавить комментарий к записи скачать торрент [VFacademy.com] Michelle Moist

!Обратная связь