Скачать порно через торрент [pornfilms3d.com] Yana 3D UnionPeer.org бесплатно онлайн HD качество

Скачать новое порно 2015, 2014 новинки через торрент UnionPeer.org

Порно торрент бесплатно ЮнионПир.орг

Статистика раздачи
Размер:  1.05 GB   |    Зарегистрирован:  10 лет   |    .torrent скачан:  410 раз   |   
Раздают:  1  
 

Скачать [pornfilms3d.com] Yana 3D (Dildo 3D) [2010 г., Solo, Dildo, Teens, 3D, 1080p, HDRip] Half SideBySide / Горизонтальная анаморфная стереопара через torrent

 
 
Автор Сообщение

IgorekSh

avatar IgorekSh


Yana 3D - Dildo 3D

Имя актрисы: Yana
Название ролика: Dildo 3D
Подсайт и сайт: pornfilms3d.com

Год производства: 2010 г.
Жанр: Solo, Dildo, Teens, 3D
Продолжительность: 00:16:30

В ролях: Yana

Описание: Яна любит пошалить с дилдо.

Тип HD видео: 1080p
Формат 3D: Half SideBySide / Горизонтальная анаморфная стереопара
Формат видео: MP4
Видео кодек: AVC
Аудио кодек: AAC
Видео: MPEG4 Video (H264) / 1920x1080p / 25.000 fps / 9000 kbps
Аудио: AAC (LC) / 48 kHz / stereo / 128 kbps

Проверено на встроенном плейере ТВ Samsung UE55 D6100

Фотосессия находится здесь.
Общее
Полное имя : D:\Download\Adult content\Dildo 3D 2010 HDRip halfSbS 1080p (IgorekSh).mp4
Формат : MPEG-4
Профиль формата : JVT
Идентификатор кодека : avc1
Размер файла : 1,05 Гбайт
Продолжительность : 16 м.
Режим общего битрейта : Постоянный
Общий поток : 9140 Кбит/сек
Дата кодирования : UTC 2013-01-23 11:33:29
Дата пометки : UTC 2013-01-23 11:33:29

Видео
Идентификатор : 1
Формат : AVC
Формат/Информация : Advanced Video Codec
Профиль формата : [email protected]
Параметр CABAC формата : Да
Параметр ReFrames формата : 2 кадра
Идентификатор кодека : avc1
Идентификатор кодека/Информация : Advanced Video Coding
Продолжительность : 16 м.
Вид битрейта : Постоянный
Битрейт : 9000 Кбит/сек
Ширина : 1920 пикселей
Высота : 1080 пикселей
Соотношение сторон : 16:9
Режим частоты кадров : Постоянный
Частота кадров : 25,000 кадров/сек
Цветовое пространство : YUV
Субдискретизация насыщенности : 4:2:0
Битовая глубина : 8 бит
Тип развёртки : Прогрессивная
Бит/(Пиксели*Кадры) : 0.174
Размер потока : 1,04 Гбайт (98%)
Язык : English
Дата кодирования : UTC 2013-01-23 11:33:29
Дата пометки : UTC 2013-01-23 11:33:29

Аудио
Идентификатор : 2
Формат : AAC
Формат/Информация : Advanced Audio Codec
Профиль формата : LC
Идентификатор кодека : 40
Продолжительность : 16 м.
Вид битрейта : Постоянный
Битрейт : 128 Кбит/сек
Каналы : 2 канала
Расположение каналов : Front: L R
Частота : 48,0 КГц
Метод сжатия : С потерями
Задержка видео : 40 мс.
Размер потока : 15,1 Мбайт (1%)
Язык : English
Дата кодирования : UTC 2013-01-23 11:33:29
Дата пометки : UTC 2013-01-23 11:33:29


Внимание! AdBlock блокирует показ скриншотов, все вопросы к разработчикам )))
Трекер:  [ 24-Апр-2013 12:14 ]

  

Скачать .torrent

Размер .torrent файла 11 KB


Размер: 1.05 GB
Хэш (hash) релиза: 0327594dee6158cb01fc58fc09074aef56064040

Еще никто не оставлял запись к записи скачать торрент [pornfilms3d.com] Yana 3D . Будь первым!

!Обратная связь