Скачать через торрент Ярость в клетке Caged Fury Фильм бесплатно в хорошем качестве torrent

Скачивайте на UnionPeer.org фильмы через торрент без регистрации. Новинки кино в хорошем качестве через торрент. На UnionPeer.org можно скачать через торрент фильмы 2014 и 2015 годов. Самые новые фильмы.

Скачать торрент Ярость в клетке Caged Fury бесплатно через .torrent фильм мультфильм сериал

Статистика раздачи
Размер:  1.46 GB   |    Зарегистрирован:  10 лет   |    .torrent скачан:  78 раз   |   
Раздают:  1  
 

Скачать Ярость в клетке / Caged Fury (Билл Миллинг / Bill Milling) [1990, США, Боевик, TVRip] DVO (НТВ+) через torrent

 
 
Автор Сообщение

Galfimbul

avatar Galfimbul


Ярость в клетке / Caged Fury«They Learned Their Lesson The Hard Way»
Страна: США
Жанр: Боевик
Год выпуска: 1990
Продолжительность: 01:31:21
Перевод: Профессиональный (двухголосый закадровый) [НТВ+]
Cубтитры: отсутствуют
Режиссер: Билл Миллинг / Bill Milling
В ролях: Эрик Эстрада, Ричард Барати, Роксана Майклс, Пол Л. Смит, Джеймс Хонг, Майкл Паркс, Джек Картер, Эйприл Даун Доллархайд, Блейк Бахнер, Елена Сахаган, Ти Рендольф, Бино, Грегори Скотт Камминс
Описание: Действие фильма происходит в тюрьме, «организованной» преступниками-авантюристами для доверчивых девушек, приезжающих в Голливуд в поисках актерской славы. В ней этих несчастных не просто запирают за решетку, но еще и учат сексуальной «уступчивости».
Sample | IMDB | КиноПоиск
Тип релиза: TVRip [исх. TVRip спасибо Valeronius]
Формат видео: AVI
Видео: 720x528 (1.36:1), 25 fps, XviD build 50, 2090 kbps avg, 0.22 bit/pixel
Аудио: 48 kHz, AC3 Dolby Digital, 2/0 (L,R) ch, 192.00 kbps avg [Russian_DVO]
Релиз группы:
General
Complete name : E:\Мои раздачи\Caged Fury_RG_All_Films.avi
Format : AVI
Format/Info : Audio Video Interleave
File size : 1.46 GiB
Duration : 1h 31mn
Overall bit rate : 2 292 Kbps
Writing application : VirtualDubMod 1.5.10.3 | www.virtualdub-fr.org || (build 2550/release)
Writing library : VirtualDubMod build 2550/release

Video
ID : 0
Format : MPEG-4 Visual
Format profile : Advanced Simple@L5
Format settings, BVOP : Yes
Format settings, QPel : No
Format settings, GMC : No warppoints
Format settings, Matrix : Custom
Codec ID : XVID
Codec ID/Hint : XviD
Duration : 1h 31mn
Bit rate : 2 091 Kbps
Width : 720 pixels
Height : 528 pixels
Display aspect ratio : 4:3
Frame rate : 25.000 fps
Color space : YUV
Chroma subsampling : 4:2:0
Bit depth : 8 bits
Scan type : Progressive
Compression mode : Lossy
Bits/(Pixel*Frame) : 0.220
Stream size : 1.33 GiB (91%)
Writing library : XviD 1.2.1 (UTC 2008-12-04)

Audio
ID : 1
Format : AC-3
Format/Info : Audio Coding 3
Mode extension : CM (complete main)
Codec ID : 2000
Duration : 1h 31mn
Bit rate mode : Constant
Bit rate : 192 Kbps
Channel(s) : 2 channels
Channel positions : Front: L R
Sampling rate : 48.0 KHz
Bit depth : 16 bits
Compression mode : Lossy
Stream size : 125 MiB (8%)
Alignment : Split accross interleaves
Interleave, duration : 40 ms (1.00 video frame)
Interleave, preload duration : 500 ms


Внимание! AdBlock блокирует показ скриншотов, все вопросы к разработчикам )))
Трекер:  [ 27-Апр-2013 10:19 ]

  

Скачать .torrent

Размер .torrent файла 15 KB


Размер: 1.46 GB
Хэш (hash) релиза: 4fad4d12151d13628f3caf245dfdf02b2acae297
Подписка на обновления:

Торренты, похожие на Ярость в клетке Caged Fury скачать торрент

Форум Название Автор Размер S L Добавлен
Зарубежные фильмы до 2016 ·· Ярость в клетке / Caged Fury (Билл Миллинг / Bill Milling) [1989, США, боевик, TVRip] DVO (НТВ+) Galfimbul 43999518724.1 GB 0 0 1366835442

23:30

24-Апр-13

Еще никто не оставлял запись к записи скачать торрент Ярость в клетке Caged Fury . Будь первым!

!Обратная связь