Скачать через торрент Спасти или уничтожить Серии: 1-4 из 4 Фильм бесплатно в хорошем качестве torrent

Скачивайте на UnionPeer.org фильмы через торрент без регистрации. Новинки кино в хорошем качестве через торрент. На UnionPeer.org можно скачать через торрент фильмы 2014 и 2015 годов. Самые новые фильмы.

Скачать торрент Спасти или уничтожить Серии: 1-4 из 4 бесплатно через .torrent фильм мультфильм сериал

Статистика раздачи
Размер:  2.58 GB   |    Зарегистрирован:  5 лет 8 месяцев   |    .torrent скачан:  299 раз   |   
Раздают:  1  
   
загрузка...
 
Автор Сообщение

L


Спасти или уничтожить

Год выпуска: 2013
Производство: Россия
Жанр: военный фильм, приключения
Продолжительность: 00:52:00
Режиссёр: Владимир Фатьянов
В ролях: Никита Зверев, Анна Снаткина, Борис Полунин, Матвей Шкуратов, Евгений Пацино, Вадим Колганов, Евгений Бахар, Игорь Злотников, Виктор Бабак, Антон Старовойтов, Кирилл Захаров, Юрий Вутто, Сергей Новицкий, Сергей Широчин, Анатолий Гурьев
Описание: Дело начинается в 1941-м году. По поручению Сталина создается специальная группа разведчиков особой секретности. Участники группы - хорошо тренированные военнослужащие, которые не знают страха, преданные Родине и высшему руководству.
Их первое задание подготовил сам Сталин. По его приказу группа должна пробраться в тыл врага и разыскать Якова Джугашвили, который, вероятно, находился в плену. Как оказалось позже Яков - старший сын Сталина. Перед членами группы стоит нелегкая задача. Отказ или неповиновение карается смертью. Никто точно не знает, жив ли Яков, или нет. Возникает множество вопросов по ходу операции
Доп.информация:
Любая реклама ОТСУТСТВУЕТ!

Сэмпл
Качество: SATRip
Формат: AVI
Видео кодек: XviD
Аудио кодек: MP3
Видео: 720x400 (1.80:1), 25 fps, XviD build 46 ~1450 kbps avg, 0.18 bit/pixel
Аудио: 48 kHz, MPEG Layer 3, 2 ch, ~128.00 kbps avg
ОбщееПолное имя : C:\Users\Intel\Neuer Ordner\Spasti.il.ynistozit.2013.SATRip\Spasti.ili.uniztisit.1.serija.2013.XviD.SATRip.aviФормат : AVIФормат/Информация : Audio Video InterleaveРазмер файла : 526 МбайтПродолжительность : 51 м.Общий поток : 1616 Кбит/сек

ВидеоИдентификатор : 0Формат : MPEG-4 VisualПрофиль формата : Simple@L3Параметр BVOP формата : НетПараметр QPel формата : НетПараметр GMC формата : Без точки переходаПараметр матрицы формата : Default (H.263)Идентификатор кодека : XVIDИдентификатор кодека/Подсказка : XviDПродолжительность : 51 м.Продолжительность оригинала : 51 м.Битрейт : 1575 Кбит/секШирина : 720 пикселейВысота : 400 пикселейСоотношение сторон : 16:9Частота кадров : 25,000 кадров/секЦветовое пространство : YUVСубдискретизация насыщенности : 4:2:0Битовая глубина : 8 битТип развёртки : ПрогрессивнаяМетод сжатия : С потерямиБит/(Пиксели*Кадры) : 0.177Размер потока : 474 Мбайт (90%)Библиотека кодирования : XviD 1.1.2 (UTC 2006-11-01)

АудиоИдентификатор : 1Формат : MPEG AudioВерсия формата : Version 1Профиль формата : Layer 3Режим : Joint stereoРасширение режима : MS StereoИдентификатор кодека : 55Идентификатор кодека/Подсказка : MP3Продолжительность : 51 м.Вид битрейта : ПостоянныйБитрейт : 128 Кбит/секКаналы : 2 каналаЧастота : 48,0 КГцМетод сжатия : С потерямиРазмер потока : 47,6 Мбайт (9%)Выравнивание : Разделение по промежуткамПродолжительность промежутка : 24 мс. (0,60 видеокадр)Библиотека кодирования : LAME3.98
Внимание! Раздача ведётся путём добавления новых серий; при каждом добавлении создётся новый торрент. Чтобы начать докачку новой серии, пользователям необходимо сделать следующее:
(1) остановить скачивание,
(2) удалить старый торрент у себя из клиента (старые серии удалять не надо),
(3) скачать новый торрент и запустить его у себя в клиенте вместо старого, при этом указать клиенту путь в старую папку куда и должно происходить скачивание новых серий.
Ваш клиент при этом должен произвести хеширование (проверку) старой папки (если не производит сам - помогите ему сделать это), и будет докачивать только те серии которых у вас ещё нет. Старые серии при этом не удаляются, а продолжают раздаваться!
Eсли вы уже удалили старые серии, то предотвратить повторную закачку старых серий можно, отжав галочку в соответсвующих местах при запуске нового торрента. По возможности, желательно не удалять старые серии как можно дольше чтобы релизёр не столько продолжал раздавать старые серии, а смог сконцентрироваться на новых


Трекер:  [ 11-Май-2013 05:21 ]

  

Скачать .torrent

Размер .torrent файла 14 KB


Размер: 2.58 GB
Хэш (hash) релиза: a34383994572b3ea348bc202b1de31862808da6d
Подписка на обновления:

L

 !  Обновлено!

Хотите добавить комментарий к записи скачать торрент Спасти или уничтожить Серии: 1-4 из 4

!Обратная связь