Скачать через торрент Без средств Stranded Фильм бесплатно в хорошем качестве torrent

Скачивайте на UnionPeer.org фильмы через торрент без регистрации. Новинки кино в хорошем качестве через торрент. На UnionPeer.org можно скачать через торрент фильмы 2014 и 2015 годов. Самые новые фильмы.

Скачать торрент Без средств Stranded бесплатно через .torrent фильм мультфильм сериал

Статистика раздачи
Размер:  35 MB   |    Зарегистрирован:  10 лет   |    .torrent скачан:  16 раз   |   
Раздают:  1  
 

Скачать Без средств / Stranded (Дония Лихти / Donia Liechti, Вики Пензес / Vicky Penzes) [2009, короткометражный анимационный фильм, WEBRip] через torrent

 
 
Автор Сообщение

L


Без средств : Stranded Год выпуска: 2009
Страна: США
Жанр: короткометражный анимационный фильм : animated short film
Продолжительность: 00:02:24
Перевод: не требуется
Субтитры: отсутствуют
Режиссёр: Дония Лихти : Donia Liechti, Вики Пензес : Vicky Penzes
Описание: Оказавшись на острове, наш герой пытается улучшить свою ситуацию, строя убежище и добывание еды. У глупой чайки есть другие планы.
релиз:
Качество: WEBRip
Формат: AVI
Видео кодек: XviD
Аудио кодек: MP3
Видео: 688x384 , (1.79:1), 23.976 fps, XviD build 65 ~1907 kbps avg, 0.30 bit/pixel
Аудио: 48 kHz, MPEG Layer 3, 2 ch, ~128.00 kbps avg
A 3D film starring a stranded man who tries to make the best of his situation by building shelter
and scavenging for food. A silly seagull has other plans. After enraging the man, they engage in a
chase which lands them both in an unexpected place.
Общее
Полное имя : C:\Users\Miss Cherrie\Desktop\Без средств\Stranded.2009.WEBRip.avi
Формат : AVI
Формат/Информация : Audio Video Interleave
Размер файла : 35,2 Мбайт
Продолжительность : 2 м. 24 с.
Общий поток : 2046 Кбит/сек
Программа кодирования : VirtualDubMod 1.5.10.3 (build 2550/release)
Библиотека кодирования : VirtualDubMod build 2550/release

Видео
Идентификатор : 0
Формат : MPEG-4 Visual
Профиль формата : Advanced Simple@L5
Параметр BVOP формата : 2
Параметр QPel формата : Нет
Параметр GMC формата : Без точки перехода
Параметр матрицы формата : Выборочная
Идентификатор кодека : XVID
Идентификатор кодека/Подсказка : XviD
Продолжительность : 2 м. 24 с.
Битрейт : 1908 Кбит/сек
Ширина : 688 пикселей
Высота : 384 пикселя
Соотношение сторон : 16:9
Частота кадров : 23,976 кадра/сек
Цветовое пространство : YUV
Субдискретизация насыщенности : 4:2:0
Битовая глубина : 8 бит
Тип развёртки : Прогрессивная
Метод сжатия : С потерями
Бит/(Пиксели*Кадры) : 0.301
Размер потока : 32,8 Мбайт (93%)
Библиотека кодирования : XviD 65

Аудио
Идентификатор : 1
Формат : MPEG Audio
Версия формата : Version 1
Профиль формата : Layer 3
Режим : Joint stereo
Расширение режима : MS Stereo
Идентификатор кодека : 55
Идентификатор кодека/Подсказка : MP3
Продолжительность : 2 м. 24 с.
Вид битрейта : Постоянный
Битрейт : 128 Кбит/сек
Каналы : 2 канала
Частота : 48,0 КГц
Метод сжатия : С потерями
Размер потока : 2,20 Мбайт (6%)
Выравнивание : Соединение по промежуткам
Продолжительность промежутка : 42 мс. (1,00 видеокадр)
Время предзагрузки промежутка : 504 мс.
Библиотека кодирования : LAME3.99r
Настройки программы : -m j -V 4 -q 3 -lowpass 17 -b 128


Внимание! AdBlock блокирует показ скриншотов, все вопросы к разработчикам )))
Трекер:  [ 13-Май-2013 07:59 ]

  

Скачать .torrent

Размер .torrent файла 11 KB


Размер: 35 MB
Хэш (hash) релиза: 0fc1fc29821ebcc4c6590d8d744e4e113f5e2fcc
Подписка на обновления:

Еще никто не оставлял запись к записи скачать торрент Без средств Stranded . Будь первым!

!Обратная связь