Скачать через торрент Мыслить как преступник Criminal minds Фильм бесплатно в хорошем качестве torrent

Скачивайте на UnionPeer.org фильмы через торрент без регистрации. Новинки кино в хорошем качестве через торрент. На UnionPeer.org можно скачать через торрент фильмы 2014 и 2015 годов. Самые новые фильмы.

Скачать торрент Мыслить как преступник Criminal minds бесплатно через .torrent фильм мультфильм сериал

Статистика раздачи
Размер:  6.01 GB   |    Зарегистрирован:  10 лет   |    .torrent скачан:  73 раза   |   
Раздают:  1  
   
 
Автор Сообщение

L


Мыслить как преступник / Criminal minds
Год выпуска: 2012
Страна: США
Жанр: Криминал, детектив, драма
Продолжительность: 40 мин
Перевод: субтитры
Русские субтитры: есть (Tilven- Criminal-minds)
Режиссёр: Джефф Дэвис

В ролях: Томас Гибсон, Шемар Мур, Метью Грей Габлер, Кирстен Вангснесс, Эй Джей Кук и Джо Мантенья

Описание: Главные герои сериала - команда лучших следователей ФБР, способных понять и проанализировать ход мыслей самых изощрённых преступников, предугадать их дальнейшие поступки и тем самым предотвратить ужасные преступления. Когда обычные криминалисты заходят в тупик, на помощь им приходят специалисты по поведенческому анализу. Вместо тщательного изучения улик они пытаются найти и понять мотивы преступления, досконально вникая в каждый шаг преступника и пытаясь мыслить, как он. Работая на месте преступления, эти профессионалы словно расследуют его изнутри, стараясь понять мысли преступника, какими бы тёмными они ни были.

Сэмпл: http://multi-up.com/768437
Качество: HDTVRip-AVC
Формат: MP4
Видео кодек: AVC
Видео кодек: AAC
Видео: 720x404 (16:9), 23.976 fps, ~800 kbps avg, 0.110 bit/pixel
Аудио: 48 kHz, 2 ch, ~128.00 kbps avg
Полное имя : D:\фильмы\Criminal minds 8season SUB\Criminal.Minds.S08E01.mp4
Формат : MPEG-4
Профиль формата : Base Media
Идентификатор кодека : isom
Размер файла : 261 Мбайт
Продолжительность : 41 м.
Режим общего битрейта : Переменный
Общий поток : 889 Кбит/сек
Дата кодирования : UTC 2012-09-24 18:42:46
Дата пометки : UTC 2012-09-24 18:42:46

Видео
Идентификатор : 1
Формат : AVC
Формат/Информация : Advanced Video Codec
Профиль формата : [email protected]
Параметр CABAC формата : Да
Параметр ReFrames формата : 5 кадров
Идентификатор кодека : avc1
Идентификатор кодека/Информация : Advanced Video Coding
Продолжительность : 41 м.
Битрейт : 762 Кбит/сек
Максимальный битрейт : 7829 Кбит/сек
Ширина : 720 пикселей
Высота : 404 пикселя
Соотношение сторон : 16:9
Режим частоты кадров : Постоянный
Частота кадров : 23,976 кадра/сек
Цветовое пространство : YUV
Субдискретизация насыщенности : 4:2:0
Битовая глубина : 8 бит
Тип развёртки : Прогрессивная
Бит/(Пиксели*Кадры) : 0.109
Размер потока : 224 Мбайт (86%)
Библиотека кодирования : x264 core 128 r2216 198a7ea
Настройки программы : cabac=1 / ref=5 / deblock=1:2:2 / analyse=0x3:0x133 / me=umh / subme=9 / psy=1 / psy_rd=1.00:0.00 / mixed_ref=1 / me_range=16 / chroma_me=1 / trellis=2 / 8x8dct=1 / cqm=0 / deadzone=21,11 / fast_pskip=1 / chroma_qp_offset=-2 / threads=20 / lookahead_threads=3 / sliced_threads=0 / nr=0 / decimate=1 / interlaced=0 / bluray_compat=0 / constrained_intra=0 / bframes=3 / b_pyramid=2 / b_adapt=2 / b_bias=0 / direct=3 / weightb=1 / open_gop=0 / weightp=2 / keyint=250 / keyint_min=23 / scenecut=40 / intra_refresh=0 / rc_lookahead=60 / rc=crf / mbtree=1 / crf=19.0 / qcomp=0.60 / qpmin=0 / qpmax=69 / qpstep=4 / ip_ratio=1.40 / aq=1:1.00
Дата кодирования : UTC 2012-09-25 17:12:33
Дата пометки : UTC 2012-09-24 18:42:52
Коэффициенты матрицы : BT.709

Аудио
Идентификатор : 2
Формат : AAC
Формат/Информация : Advanced Audio Codec
Профиль формата : LC
Идентификатор кодека : 40
Продолжительность : 41 м.
Вид битрейта : Переменный
Битрейт : 122 Кбит/сек
Максимальный битрейт : 147 Кбит/сек
Каналы : 2 канала
Расположение каналов : Front: L R
Частота : 48,0 КГц
Метод сжатия : С потерями
Задержка видео : 83 мс.
Размер потока : 35,9 Мбайт (14%)
Дата кодирования : UTC 2012-09-24 18:42:49
Дата пометки : UTC 2012-09-24 18:42:52
Внимание! Раздача ведётся путём добавления новых серий; при каждом добавлении создаётся новый торрент. Чтобы начать докачку новой серии, пользователям необходимо сделать следующее: (1) остановить скачивание, (2) удалить старый торрент у себя из клиента (старые серии удалять не надо), (3) скачать новый торрент и запустить его у себя в клиенте вместо старого, при этом указать клиенту путь в старую папку куда и должно происходить скачивание новых серий.

Ваш клиент при этом должен произвести хеширование (проверку) старой папки (если не производит сам - помогите ему сделать это), и будет докачивать только те серии которых у вас ещё нет. Старые серии при этом не удаляются, а продолжают раздаваться!

Если вы уже удалили старые серии, то предотвратить повторную закачку старых серий можно, отжав галочку в соответствующих местах при запуске нового торрента.


Внимание! AdBlock блокирует показ скриншотов, все вопросы к разработчикам )))
Трекер:  [ 28-Май-2013 08:22 ]

  

Скачать .torrent

Размер .torrent файла 33 KB


Размер: 6.01 GB
Хэш (hash) релиза: 43b3700ce7cdf868e002ac72e6758ac3583ae4d0
Подписка на обновления:

Еще никто не оставлял запись к записи скачать торрент Мыслить как преступник Criminal minds . Будь первым!

!Обратная связь