Скачать через торрент Камера The Chamber Фильм бесплатно в хорошем качестве torrent

Скачивайте на UnionPeer.org фильмы через торрент без регистрации. Новинки кино в хорошем качестве через торрент. На UnionPeer.org можно скачать через торрент фильмы 2014 и 2015 годов. Самые новые фильмы.

Скачать торрент Камера The Chamber бесплатно через .torrent фильм мультфильм сериал

Статистика раздачи
Размер:  3.64 GB   |    Зарегистрирован:  10 лет   |    .torrent скачан:  18 раз   |   
Раздают:  1  
 

Скачать Камера / The Chamber (Джеймс Фоули / James Foley) [1996, США, Триллер, драма, WEB-DL 720p] DVO + Original (Eng) + Sub (Eng) через torrent

 
 
Автор Сообщение

Galfimbul

avatar Galfimbul


Камера / The Chamber

Страна: США
Студия: Universal Pictures
Жанр: Триллер, драма
Год выпуска: 1996
Продолжительность: 01:52:31

Перевод: Профессиональный (двухголосый закадровый)
Cубтитры: Английские
Оригинальная аудиодорожка: Английский

Режиссер: Джеймс Фоули / James Foley

В ролях: Крис О’Доннелл, Джин Хэкмен, Фэй Данауэй, Роберт Проски, Рэймонд Дж. Бэрри, Бо Джексон, Лила Рошон, Дэвид Маршалл Грант, Николас Прайор, Харви Преснелл

Описание: В апреле 1967 года в одном из южных штатов расисты взорвали контору еврея. Погибли двое детей. Затем действие переносится в Чикаго 1996 года.
Молодой адвокат должен защищать человека, виновного в этом преступлении. Его ждет смертный приговор…

Kinopoisk:
6.816 (302)

IMDb:
5.80 (8 084)

Сэмпл

Тип релиза: WEB-DL 720p
Контейнер: MKV

Видео: H.264, 1280x538 (2.40:1), 23.976 fps, 3 957 Kbps [PublicHD]
Аудио 1: Rus / DVO / 48.0 KHz, AC3 Dolby Digital, 2/0 (L,R) ch, 192 kbps
Аудио 2: Eng / Original /48 kHz, AC3 Dolby Digital, 3/2 (L,C,R,l,r) + LFE ch, 384 Kbps
General
Unique ID : 195261862850049460542887371564638923761 (0x92E6111E20E530E5B6CBBC809C4DEBF1)
Complete name : The.Chamber.1996.720p.WEB-DL.H264.DVO.RUS.ENG.SUB(ENG).mkv
Format : Matroska
Format version : Version 2
File size : 3.64 GiB
Duration : 1h 52mn
Overall bit rate : 4 625 Kbps
Encoded date : UTC 2013-08-12 18:11:41
Writing application : mkvmerge v4.9.1 (''Ich will'') сборка от Jul 11 2011 23:53:15
Writing library : libebml v1.2.1 + libmatroska v1.1.1

Video
ID : 1
Format : AVC
Format/Info : Advanced Video Codec
Format profile : [email protected]
Format settings, CABAC : No
Format settings, ReFrames : 2 frames
Codec ID : V_MPEG4/ISO/AVC
Duration : 1h 52mn
Bit rate : 3 957 Kbps
Width : 1 280 pixels
Height : 538 pixels
Display aspect ratio : 2.40:1
Frame rate mode : Constant
Frame rate : 23.976 fps
Color space : YUV
Chroma subsampling : 4:2:0
Bit depth : 8 bits
Scan type : Progressive
Bits/(Pixel*Frame) : 0.240
Stream size : 3.11 GiB (86%)
Language : English
Default : Yes
Forced : No
Color primaries : BT.709
Transfer characteristics : BT.709
Matrix coefficients : BT.709

Audio #1
ID : 2
Format : AC-3
Format/Info : Audio Coding 3
Mode extension : CM (complete main)
Format settings, Endianness : Big
Codec ID : A_AC3
Duration : 1h 52mn
Bit rate mode : Constant
Bit rate : 192 Kbps
Channel(s) : 2 channels
Channel positions : Front: L R
Sampling rate : 48.0 KHz
Bit depth : 16 bits
Compression mode : Lossy
Stream size : 155 MiB (4%)
Language : Russian
Default : Yes
Forced : No

Audio #2
ID : 3
Format : AC-3
Format/Info : Audio Coding 3
Mode extension : CM (complete main)
Format settings, Endianness : Big
Codec ID : A_AC3
Duration : 1h 52mn
Bit rate mode : Constant
Bit rate : 384 Kbps
Channel(s) : 6 channels
Channel positions : Front: L C R, Side: L R, LFE
Sampling rate : 48.0 KHz
Bit depth : 16 bits
Compression mode : Lossy
Stream size : 309 MiB (8%)
Language : English
Default : No
Forced : No

Text
ID : 4
Format : UTF-8
Codec ID : S_TEXT/UTF8
Codec ID/Info : UTF-8 Plain Text
Language : English
Default : No
Forced : No

Menu
00:00:00.000 : en:The Cayhall Case (Main Titles)
00:08:11.000 : en:Hitler''s Daughter
00:13:01.000 : en:The New Lawyer
00:26:22.000 : en:The Governor''s Options
00:28:25.000 : en:Welcome to Dixie
00:33:15.000 : en:Land of The Secrets
00:37:35.000 : en:I''ll Tell You About The Past . . .
00:50:16.000 : en:A New Motion
00:58:08.000 : en:The Sovereignty Commission''s Report
01:03:27.000 : en:A Family Picture
01:13:19.000 : en:The Path to "R.W."
01:19:26.000 : en:Forgiveness
01:22:33.000 : en:The Last Appeal
01:32:58.000 : en:The Final Judgment
01:41:13.000 : en:The Chamber
01:46:45.000 : en:Maybe The Ghosts Are Gone (End Titles)


Внимание! AdBlock блокирует показ скриншотов, все вопросы к разработчикам )))
Трекер:  [ 14-Авг-2013 11:49 ]

  

Скачать .torrent

Размер .torrent файла 18 KB


Размер: 3.64 GB
Хэш (hash) релиза: 4cd2ab84f16f1a94e6bd4bc501a1fbaaee5cb603
Подписка на обновления:

bot

Топик был перенесен из форума Зарубежное кино (BD|HD) в форум Зарубежное кино до 2013

Galfimbul

Хотите добавить комментарий к записи скачать торрент Камера The Chamber

!Обратная связь