Скачать через торрент музыку Israel Vibration - Fighting Soldiers бесплатно без регистрации torrent

Статистика раздачи
Размер:  1.09 GB   |    Зарегистрирован:  5 лет 1 месяц   |    .torrent скачан:  74 раза   |   
Раздают:  1  
   
загрузка...
 
Автор Сообщение

Polarnik

avatar Polarnik


Israel Vibration / Fighting Soldiers

Жанр: reggay
Страна-производитель диска: China
Год издания: 2008
Издатель (лейбл): BD Music
Номер по каталогу: BDW0061
Страна: Jamaica
Аудиокодек: WavPack (*.wv)
Тип рипа: image+.cue
Битрейт аудио: lossless
Продолжительность: 55:39 & 72:14
Источник (релизер): alexander038
Наличие сканов в содержимом раздачи: да
Треклист:
CD1: Fighting Soldiers

01 - Unseen Bullet (04:24)
02 - Craven Raven (04:39)
03 - Level Every Angle (03:42)
04 - Fighting Soldiers (04:29)
05 - Tippy Tippy Toes (05:04)
06 - Jah Runnings (04:17)
07 - Miscalculation (05:19)
08 - Sodom And Gomorrah (04:24)
09 - Men In High Places (05:25)
10 - Peace Not War (04:35)
11 - Bloodstain (04:31)
12 - Wish You Were Here (04:48)

CD2: Live & Jammin''

01 - Warm Up (04:42)
02 - African Unification (05:13)
03 - Rockfort Rock (04:29)
04 - Jammin'' (04:51)
05 - Vultures (04:43)
06 - Level Every Angle (03:48)
07 - Ball Of Fire (05:18)
08 - Get Up ''N'' Go (04:32)
09 - Why Worry (03:47)
10 - Never Gonna Hurt You (07:26)
11 - Cool And Calm (03:37)
12 - Jah Runnings (03:13)
13 - Feelin'' Irie (02:52)
14 - Licks And Kicks (02:15)
15 - The Same Song (02:58)
16 - Red Eyes (Introducing The Band)(08:29)
Exact Audio Copy V1.0 beta 1 from 15. November 2010

EAC extraction logfile from 22. June 2011, 20:44

Israel Vibration / Fighting Soldiers (Reissued-2008)

Used drive : PLEXTOR DVDR PX-L890SA Adapter: 2 ID: 0

Read mode : Secure
Utilize accurate stream : Yes
Defeat audio cache : Yes
Make use of C2 pointers : No

Read offset correction : 6
Overread into Lead-In and Lead-Out : No
Fill up missing offset samples with silence : Yes
Delete leading and trailing silent blocks : No
Null samples used in CRC calculations : Yes
Used interface : Native Win32 interface for Win NT & 2000

Used output format : Internal WAV Routines
Sample format : 44.100 Hz; 16 Bit; Stereo

TOC of the extracted CD

Track | Start | Length | Start sector | End sector
---------------------------------------------------------
1 | 0:00.00 | 4:24.16 | 0 | 19815
2 | 4:24.16 | 4:38.71 | 19816 | 40736
3 | 9:03.12 | 3:41.41 | 40737 | 57352
4 | 12:44.53 | 4:29.00 | 57353 | 77527
5 | 17:13.53 | 5:04.26 | 77528 | 100353
6 | 22:18.04 | 4:17.19 | 100354 | 119647
7 | 26:35.23 | 5:18.48 | 119648 | 143545
8 | 31:53.71 | 4:23.42 | 143546 | 163312
9 | 36:17.38 | 5:25.31 | 163313 | 187718
10 | 41:42.69 | 4:35.37 | 187719 | 208380
11 | 46:18.31 | 4:30.70 | 208381 | 228700
12 | 50:49.26 | 4:47.69 | 228701 | 250294

Range status and errors

Selected range

Filename D:\Israel Vibration [2002] [CD1] Fighting Soldiers (Reissued-2008, Digi Longbook) [EAC-WV] [HQShare.net]\Israel Vibration - Fighting Soldiers (Reissued-2008).wav

Peak level 97.6 %
Extraction speed 0.2 X
Range quality 99.9 %
Test CRC ABC01855
Copy CRC ABC01855
Copy OK

No errors occurred

AccurateRip summary

Track 1 not present in database
Track 2 not present in database
Track 3 not present in database
Track 4 not present in database
Track 5 not present in database
Track 6 not present in database
Track 7 not present in database
Track 8 not present in database
Track 9 not present in database
Track 10 not present in database
Track 11 not present in database
Track 12 not present in database

None of the tracks are present in the AccurateRip database

End of status report

==== Log checksum C3DDD1BD833E7343F4C19FCC50DCD13F748021EAA498C15F30E056A502093533 ====
Exact Audio Copy V1.0 beta 1 from 15. November 2010

EAC extraction logfile from 22. June 2011, 21:09

Israel Vibration / Live & Jammin'' (Reissued-2008)

Used drive : PLEXTOR DVDR PX-L890SA Adapter: 2 ID: 0

Read mode : Secure
Utilize accurate stream : Yes
Defeat audio cache : Yes
Make use of C2 pointers : No

Read offset correction : 6
Overread into Lead-In and Lead-Out : No
Fill up missing offset samples with silence : Yes
Delete leading and trailing silent blocks : No
Null samples used in CRC calculations : Yes
Used interface : Native Win32 interface for Win NT & 2000

Used output format : Internal WAV Routines
Sample format : 44.100 Hz; 16 Bit; Stereo

TOC of the extracted CD

Track | Start | Length | Start sector | End sector
---------------------------------------------------------
1 | 0:00.00 | 4:41.70 | 0 | 21144
2 | 4:41.70 | 5:13.33 | 21145 | 44652
3 | 9:55.28 | 4:29.29 | 44653 | 64856
4 | 14:24.57 | 4:50.52 | 64857 | 86658
5 | 19:15.34 | 4:42.52 | 86659 | 107860
6 | 23:58.11 | 3:47.42 | 107861 | 124927
7 | 27:45.53 | 5:18.24 | 124928 | 148801
8 | 33:04.02 | 4:32.18 | 148802 | 169219
9 | 37:36.20 | 3:47.31 | 169220 | 186275
10 | 41:23.51 | 7:25.63 | 186276 | 219713
11 | 48:49.39 | 3:36.56 | 219714 | 235969
12 | 52:26.20 | 3:12.48 | 235970 | 250417
13 | 55:38.68 | 2:52.34 | 250418 | 263351
14 | 58:31.27 | 2:15.06 | 263352 | 273482
15 | 60:46.33 | 2:58.37 | 273483 | 286869
16 | 63:44.70 | 8:29.00 | 286870 | 325044

Range status and errors

Selected range

Filename D:\Israel Vibration [2003] [CD2] Live & Jammin'' (Reissued-2008, Digi Longbook) [EAC-WV] [HQShare.net]\Israel Vibration - Live & Jammin'' (Reissued-2008).wav

Peak level 97.7 %
Extraction speed 0.7 X
Range quality 100.0 %
Test CRC 4433373A
Copy CRC 4433373A
Copy OK

No errors occurred

AccurateRip summary

Track 1 not present in database
Track 2 not present in database
Track 3 not present in database
Track 4 not present in database
Track 5 not present in database
Track 6 not present in database
Track 7 not present in database
Track 8 not present in database
Track 9 not present in database
Track 10 not present in database
Track 11 not present in database
Track 12 not present in database
Track 13 not present in database
Track 14 not present in database
Track 15 not present in database
Track 16 not present in database

None of the tracks are present in the AccurateRip database

End of status report

==== Log checksum 75AF0454350FC16211A0E59A9B1B8489E32DDA0EF5E52F50FE6E75B1D9FA8630 ====
''Fighting Soldiers''

Israel Vibration, originally a trio but since the end of the nineties a duo consisting of Lascelle "Wiss" Bulgin and Cecil "Skelly" Spence, is one of the roots vocal groups that have influenced the face of roots reggae music in the second half of the seventies and throughout the eighties. During their more than two-and-a-half decades spanning career Israel Vibration have released many fine albums and singles and toured the world extensively. Wether they recorded in the studio or performed live on stage, Israel Vibration have always been backed by the Roots Radics band. From their debut set "The Same Song" upto and including this brand new album "Fighting Soldiers" Israel Vibration''s musical concept hasn''t gone through major changes. Each member writes his own songs, mainly roots & culture oriented but occasionally also dealing with matters of the heart. Then the songs are alternately presented on the album with the Roots Radics providing "live" played original riddims - mostly full sounding heavy roots backdrops - for the distinctive vocal of the lead singer. Although Israel Vibration is no longer on the cutting edge of reggae music, there has been little decline in the quality of their material as can be witnessed on their "Fighting Soldiers" album. Although not an essential release this set features strong songs such as "Unseen Bullet", "Level Every Angle", the ska-flavored "Jah Runnings", "Miscalculation", Men In High Places" and Peace Not War". With the other tracks being not far behind Israel Vibration delivers a fairly entertaining album which will surely find its way to their many fans.

''Live & Jammin''

add this one to the list of spectacular live reggae shows caught on cd. and you thought they were getting old. backed by the industry-standard roots radics band, izzy vibes delivers hit after hit; old favorites like the seat-of-your pants intro rockford rock, same song, vultures, red eyes, cool and calm, ball of fire, and why worry, and also a few newer tunes like get up and go, african unification, jah runnings, and some a holler some a bawl. and the crowd''s "we want more" reaction to every note they play makes you feel like youre right there; the energy is at maximum irieness. even people who dont care for reggae will dig this. i promise.
Lascelle "Wiss" Bulgin
Cecil "Skeleton" Spence
Albert "Apple Gabriel" Craig


Трекер:  [ 25-Сен-2013 08:09 ]

  

Скачать .torrent

Размер .torrent файла 13 KB


Размер: 1.09 GB
Хэш (hash) релиза: 365cf26f50ee96ae27a7e14e280b9f1ec37e4a38

Еще никто не оставлял запись к записи скачать торрент Israel Vibration - Fighting Soldiers . Будь первым!

!Обратная связь