Скачать через торрент Мошенники Serving Sara Фильм бесплатно в хорошем качестве torrent

Скачивайте на UnionPeer.org фильмы через торрент без регистрации. Новинки кино в хорошем качестве через торрент. На UnionPeer.org можно скачать через торрент фильмы 2014 и 2015 годов. Самые новые фильмы.

Скачать торрент Мошенники Serving Sara бесплатно через .torrent фильм мультфильм сериал

Статистика раздачи
Размер:  1.53 GB   |    Зарегистрирован:  5 лет 1 месяц   |    .torrent скачан:  125 раз   |   
Раздают:  1  
   
загрузка...
 
Автор Сообщение

whitekollar

avatar whitekollar


Мошенники / Serving Sara
Год выпуска: 2002
Страна: Германия, США
Жанр: мелодрама, комедия
Продолжительность: 01:35:00
Перевод №1: Профессиональный (полное дублирование)
Перевод №2: Профессиональный (многоголосый, закадровый)
Перевод №3: Авторский (одноголосый) [Королев]
Русские субтитры: нет

Режиссер: Реджинальд Хадлин

В ролях: Мэттью Пэрри, Элизабет Хёрли, Брюс Кэмпбелл, Винсент Пасторе, Джерри Стиллер, Эйми Адамз, Джо Витерелли, Терри Крюз, Маршалл Белл, Фара Уайт, Седрик-комедиант

Описание: Развод по-американски – это развод на деньги. Надо только вытереть слезы и, с помощью ушлого парня из адвокатской конторы, "развести" бывшего муженька и его новую пассию на 10 миллионов долларов. Все, что для этого нужно – небольшое мошенничество…
Гордон и Сара Мур - не совсем обычная супружеская пара. Сара - типичная англичанка, Гордон - типичный техасец. Благодаря совместным усилиям их скотоводческое ранчо приносит огромные доходы. Прощаясь с мужем в аэропорту и садясь в самолет, направляющийся в Нью-Йорк, Сара и подумать не могла, какую подлянку приготовил ей благоверный. В его жизни появилась другая женщина, и он хочет развестись. В Нью-Йорке Сару находит судебный исполнитель Джо Тайлер, которому поручено вручить ей документы о начале процедуры развода. Ее единственный шанс не остаться после развода нищей – перехватить инициативу и первой всучить мужу документы о разводе. За совершение этой операции Сара предлагает все тому же Джо Тайлеру миллион долларов...




Качество: DVDRip
Формат: AVI
Видео кодек: XviD
Аудио кодек: AC3
Видео: 720x400 (1.80:1), 25 fps, XviD build 47 ~1849 kbps avg, 0.26 bit/pixel
Аудио #1: 48 kHz, AC3 Dolby Digital, 2/0 (L,R) ch, ~192.00 kbps avg[DUB]
Аудио #2: 48 kHz, MPEG Layer 3, 2 ch, ~130.59 kbps avg[MVO]
Аудио #3: 48 kHz, MPEG Layer 3, 2 ch, ~104.98 kbps avg[AVO]
General
Complete name : E:INTERNETMoshenniki_3Rus.avi
Format : AVI
Format/Info : Audio Video Interleave
File size : 1.53 GiB
Duration : 1h 35mn
Overall bit rate mode : Variable
Overall bit rate : 2 297 Kbps
Writing application : VirtualDubMod 1.5.4.1 (build 2178/release)
Writing library : VirtualDubMod build 2178/release

Video
ID : 0
Format : MPEG-4 Visual
Format profile : Advanced Simple@L5
Format settings, BVOP : 1
Format settings, QPel : No
Format settings, GMC : No warppoints
Format settings, Matrix : Custom
Codec ID : XVID
Codec ID/Hint : XviD
Duration : 1h 35mn
Bit rate : 1 839 Kbps
Width : 720 pixels
Height : 400 pixels
Display aspect ratio : 16:9
Frame rate : 25.000 fps
Color space : YUV
Chroma subsampling : 4:2:0
Bit depth : 8 bits
Scan type : Progressive
Compression mode : Lossy
Bits/(Pixel*Frame) : 0.255
Stream size : 1.23 GiB (80%)
Writing library : XviD 1.2.0.dev47 (UTC 2006-11-01)

Audio #1
ID : 1
Format : AC-3
Format/Info : Audio Coding 3
Mode extension : CM (complete main)
Format settings, Endianness : Big
Codec ID : 2000
Duration : 1h 35mn
Bit rate mode : Constant
Bit rate : 192 Kbps
Channel count : 2 channels
Channel positions : Front: L R
Sampling rate : 48.0 KHz
Bit depth : 16 bits
Compression mode : Lossy
Stream size : 131 MiB (8%)
Alignment : Split accross interleaves

Audio #2
ID : 2
Format : MPEG Audio
Format version : Version 1
Format profile : Layer 3
Mode : Joint stereo
Codec ID : 55
Codec ID/Hint : MP3
Duration : 1h 29mn
Bit rate mode : Variable
Bit rate : 131 Kbps
Channel count : 2 channels
Sampling rate : 48.0 KHz
Compression mode : Lossy
Stream size : 84.1 MiB (5%)
Alignment : Aligned on interleaves

Audio #3
ID : 3
Format : MPEG Audio
Format version : Version 1
Format profile : Layer 3
Mode : Joint stereo
Mode extension : MS Stereo
Codec ID : 55
Codec ID/Hint : MP3
Duration : 1h 35mn
Bit rate mode : Constant
Bit rate : 32.0 Kbps
Channel count : 2 channels
Sampling rate : 48.0 KHz
Compression mode : Lossy
Stream size : 21.9 MiB (1%)
Alignment : Aligned on interleaves
Writing library : LAME3.90.3


Трекер:  [ 11-Сен-2013 10:25 ]

  

Скачать .torrent

Размер .torrent файла 16 KB


Размер: 1.53 GB
Хэш (hash) релиза: 2c4b409c89a1dd39e16dde715b84f5734a172f9d
Подписка на обновления:

Еще никто не оставлял запись к записи скачать торрент Мошенники Serving Sara . Будь первым!

!Обратная связь