Скачать порно через торрент Foxy Girl | Девочка лисичка UnionPeer.org бесплатно онлайн HD качество

Скачать новое порно 2015, 2014 новинки через торрент UnionPeer.org

Порно торрент бесплатно ЮнионПир.орг

Статистика раздачи
Размер:  1.3 GB   |    Зарегистрирован:  10 лет   |    .torrent скачан:  1898 раз   |   
Раздают:  2  
 

Скачать Foxy Girl | Девочка лисичка (Anita Rinaldi, Z Master Productions) [1998 г., DP, Anal, Oral, Facial, DVDRip, Anita Blond , Giongy Fodor , Katalyn Hoffner , Maria Bellucci , Mercedes Toth ] через torrent

 
 
Автор Сообщение

LinGr

avatar LinGr


Foxy Girl
Девочка лисичка

Год производства: 1998 г.
Страна: Италия | Italy
Жанр: DP, Anal, Oral, Facial
Продолжительность: 01:29:03
Язык: Итальянский | Italian

Режиссер: Anita Rinaldi
Студия: Z Master Productions

В ролях:
Actresses
Anita Blond [Facial]
Giongy Fodor (as Fodor Gyiongyi) [LezOnly]
Katalyn Hoffner (as Hofner Katalin) [LezOnly]
Maria Bellucci (as Maria) [Anal Facial DP]
Mercedes Toth [Facial]
Monika Kiss [Facial]
Paula Brasile (as Paola Basile)

Actors
Backey Jakic
Francesco Malcom
John Walton
Valentino

Описание:
Сюжет неприхотлив, Paola Basile повествует нам рассказ о том как она учица,
встречаеца с друзьями, ну и конечно о том как друзья мужского пола трахают Паолу и её подружек.


Scene Breakdowns:
Scene 1. Maria Bellucci, Monika Kiss, Backey Jakic, Francesco Malcom, Valentino
Scene 2. Anita Blond, Mercedes Toth, John Walton
Scene 3. Giongy Fodor, Katalyn Hoffner
Scene 4. Anita Blond, Valentino
Scene 5. Paula Brasile, Backey Jakic
General
Format : MPEG-4
Format profile : Base Media / Version 2
Codec ID : mp42
File size : 1.30 GiB
Duration : 1h 29mn
Overall bit rate : 2 091 Kbps
Writing application : TMPGEnc Video Mastering Works 5 Version. 5.4.0.100
Video #2
ID : 2
Format : AVC
Format/Info : Advanced Video Codec
Codec ID : avc1
Codec ID/Info : Advanced Video Coding
Duration : 1h 29mn
Bit rate mode : Variable
Bit rate : 1 995 Kbps
Width : 704 pixels
Height : 528 pixels
Display aspect ratio : 4:3
Frame rate mode : Constant
Frame rate : 25.000 fps
Bits/(Pixel*Frame) : 0.215
Stream size : 1.24 GiB (95%)
Audio #1
ID : 1
Format : AAC
Format/Info : Advanced Audio Codec
Format version : Version 4
Format profile : LC
Format settings, SBR : No
Codec ID : 40
Duration : 1h 29mn
Bit rate mode : Variable
Bit rate : 93.4 Kbps
Maximum bit rate : 576 Kbps
Channel(s) : 2 channels
Channel positions : L R
Sampling rate : 48.0 KHz
Resolution : 16 bits
Stream size : 59.5 MiB (4%)
Качество видео: DVDRip
Формат видео: MP4
Видео кодек: H.264/AVC
Аудио кодек: AAC
Видео: MPEG4 Video (H264) 704x528 25.00fps [Video Media Handler]
Аудио: 48000Hz stereo 93Kbps [Sound Media Handler]



Внимание! AdBlock блокирует показ скриншотов, все вопросы к разработчикам )))
Трекер:  [ 11-Сен-2013 20:18 ]

  

Скачать .torrent

Размер .torrent файла 13 KB


Размер: 1.3 GB
Хэш (hash) релиза: a530de659b4d32d412256f028f030dbfae376404

Еще никто не оставлял запись к записи скачать торрент Foxy Girl | Девочка лисичка . Будь первым!

!Обратная связь