Скачать порно через торрент Special Delivery Специальная Доставка UnionPeer.org бесплатно онлайн HD качество

Скачать новое порно 2015, 2014 новинки через торрент UnionPeer.org

Порно торрент бесплатно ЮнионПир.орг

Статистика раздачи
Размер:  19.54 GB   |    Зарегистрирован:  10 лет   |    .torrent скачан:  218 раз   |   
Раздают:  1  
 

Скачать Special Delivery / Специальная Доставка (Robby D, Digital Playground) [2013 г., Feature, 1080p, Blu-Ray] через torrent

 
 
Автор Сообщение

LinGr

avatar LinGr


Special Delivery
Специальная Доставка

Год производства: 2013 г.
Страна: США
Продолжительность: 1:42:06

Режиссер: Robby D
Студия: Digital Playground

В ролях: Stoya, Ava Addams, Selena Rose, James Deen, Xander Corvus, Mr. Pete, Bill Bailey...

Описание: All of us wait for that special package to arrive but this package comes delivered by our hot Latina Chiquita Selena Rose. A delivery with benefits. While a freaky accident stops Ava from completing her deliveries, Selena steps in and brings her own flavor on how a package should be delivered. Happy for her new found career, Selena goes home to tell her boyfriend Mr. Pete. Her first package, a box of PMS pills, delivers a raging Stoya into a hole of pleasure for James Deen. But a wrongful address stop makes Keira Winters and Bill Bailey swim in each other's lust. Alex, feeling sorry for hurting Ava, gives his big cock to her for comfort to ease her pain. A star struck Selena bends every way possible to get as much dick as she can from rock star Xander. Excited from her first day, Selena returns home to tell her boyfriend about it, whom in return gives her pointers by delivering his dick into her!

Доп. материалы и бонусы:
Interactive Menus
Chapter Selections
Web Site Information
Slide Show
Behind The Scenes
Trailers

Тип HD видео: 1080p
Качество видео: Blu-Ray
Видео: MPEG-4 AVC Video / 19999 kbps / 1080p / 23,976 fps / 16:9 / High Profile 4.1
Аудио: AC3 / 5.1 / 48 kHz / 448 kbps / DN -4dB

Семпл - 30 сек (40 МБ) ЯндексДиск

C:\SPECIAL_DELIVERY_BD\BDMV\STREAM\00002.m2ts

General #0
ID : 0 (0x0)
Complete name : C:\SPECIAL_DELIVERY_BD\BDMV\STREAM\00002.m2ts
Format : BDAV
Format/Info : Blu-ray Video
File size : 15.3 GiB
Duration : 1h 42mn
Overall bit rate mode : Variable
Overall bit rate : 21.4 Mbps
Maximum Overall bit rate : 48.0 Mbps

Video #4113
ID : 4113 (0x1011)
Menu ID : 1 (0x1)
Format : AVC
Format/Info : Advanced Video Codec
Format profile : [email protected]
Format settings, CABAC : Yes
Format settings, ReFrames : 3 frames
Codec ID : 27
Duration : 1h 42mn
Bit rate mode : Variable
Bit rate : 20.1 Mbps
Maximum bit rate : 25.0 Mbps
Width : 1 920 pixels
Height : 1 080 pixels
Display aspect ratio : 16:9
Frame rate : 23.976 fps
Standard : NTSC
Color space : YUV
Chroma subsampling : 4:2:0
Bit depth : 8 bits
Scan type : Progressive
Bits/(Pixel*Frame) : 0.405
Stream size : 14.3 GiB (94%)
Color primaries : BT.709
Transfer characteristics : BT.709
Matrix coefficients : BT.709

Audio #4352
ID : 4352 (0x1100)
Menu ID : 1 (0x1)
Format : AC-3
Format/Info : Audio Coding 3
Mode extension : CM (complete main)
Format settings, Endianness : Big
Codec ID : 129
Duration : 1h 42mn
Bit rate mode : Constant
Bit rate : 448 Kbps
Channel count : 6 channels
Channel positions : Front: L C R, Side: L R, LFE
Sampling rate : 48.0 KHz
Bit depth : 16 bits
Compression mode : Lossy
Stream size : 327 MiB (2%)
DISC INFO:

Disc Title: SPECIAL_DELIVERY_BD
Disc Size: 20 980 084 347 bytes
Protection: AACS
BD-Java: No
BDInfo: 0.5.8

PLAYLIST REPORT:

Name: 00002.MPLS
Length: 1:42:06.120 (h:m:s.ms)
Size: 16 403 779 584 bytes
Total Bitrate: 21,42 Mbps

VIDEO:

Codec Bitrate Description
----- ------- -----------
MPEG-4 AVC Video 19999 kbps 1080p / 23,976 fps / 16:9 / High Profile 4.1

AUDIO:

Codec Language Bitrate Description
----- -------- ------- -----------
Dolby Digital Audio English 448 kbps 5.1 / 48 kHz / 448 kbps / DN -4dB

QUICK SUMMARY:

Disc Title: SPECIAL_DELIVERY_BD
Disc Size: 20 980 084 347 bytes
Protection: AACS
BD-Java: No
Playlist: 00002.MPLS
Size: 16 403 779 584 bytes
Length: 1:42:06.120
Total Bitrate: 21,42 Mbps
Video: MPEG-4 AVC Video / 19999 kbps / 1080p / 23,976 fps / 16:9 / High Profile 4.1
Audio: English / Dolby Digital Audio / 5.1 / 48 kHz / 448 kbps / DN -4dB


Внимание! AdBlock блокирует показ скриншотов, все вопросы к разработчикам )))

Трекер:  [ 05-Окт-2013 11:05 ]

  

Скачать .torrent

Размер .torrent файла 55 KB


Размер: 19.54 GB
Хэш (hash) релиза: 6d599d1eb4b87e2abe987ee1a6292faf9a651b59

Торренты, похожие на Special Delivery Специальная Доставка скачать торрент

Форум Название Автор Размер S L Добавлен
Фильмы с сюжетом, Классические (HD Video) / Feature & Vignettes (HD Video) ·· Special Delivery / Специальная Доставка (Robby D., Digital Playground) [2013 г., Feature, 1080p, BDRip] (Selena Rose, James Deen, Mr Pete, Bill Bailey, Alex, Stoya, Kiera Winters, Ava, Xander) Galfimbul 70396492096.56 GB 0 3 1675305022

05:30

2-Фев-23

Фильмы с сюжетом, Классические (HD Video) / Feature & Vignettes (HD Video) ·· Special Delivery / Специальная Доставка (Robby D, Digital Playground) [2013 г., Feature, Blu-Ray, 1080p] (Ava Addams, James Deen, Stoya, Xander Corvus, Selena Santana, Mr. Pete, Bill Bailey) Galfimbul 2098008434719.54 GB 0 2 1634389206

16:00

16-Окт-21

Фильмы с сюжетом, Классические (HD Video) / Feature & Vignettes (HD Video) ·?· Special Delivery / Специальная Доставка (Robby D., Digital Playground) [2013 г., Feature, BDRip, 1080p] (Selena Rose, Stoya, Kiera Winters, Ava, James Deen, Mr Pete, Bill Bailey, Alex, Xander) Galfimbul 86144050958.02 GB 0 3 1634387649

15:34

16-Окт-21

Фильмы с сюжетом / Feature & Vignettes ·· Special Delivery / Специальная Доставка (Robby D, Digital Playground) [2013 г., Feature, WEBRip] (Ava Addams, Kiera Winters, Selena Rose, Stoya) LinGr 15957819571.49 GB 0 0 1377781340

16:02

29-Авг-13

Лесбо-фильмы / All Girl & Solo ·· Special Delivery / Специальная Доставка (Brad Mann, nineeighty entertainment) [2002 г., Lesbian, DVDRip] LinGr 14392671101.34 GB 0 0 1376426915

23:48

13-Авг-13

Еще никто не оставлял запись к записи скачать торрент Special Delivery Специальная Доставка . Будь первым!

!Обратная связь