Скачать через торрент музыку Zaho - Contagieuse - Musique Acoustic от 17.11.2013 - TV5MONDE бесплатно без регистрации torrent

Статистика раздачи
Размер:  792 MB   |    Зарегистрирован:  6 лет 7 месяцев   |    .torrent скачан:  46 раз   |   
Раздают:  1  
 

Скачать Zaho - Contagieuse - Musique Acoustic от 17.11.2013 - TV5MONDE (Филипп Сомме / Philippe Sommet) [2013 г., R’n’B, Swing, Pop, Live, DVB] через torrent

 
Timeweb Many GEOs Sprinthost
загрузка...
 
Автор Сообщение

Galfimbul ghost

avatar Galfimbul ghost


Zaho - Contagieuse
Musique Acoustic от 17.11.2013 - TV5MONDE
Страна: Франция
Жанр: R’n’B, Swing, Pop, Live
Продолжительность: 00:26:55
Год выпуска: 2013 г.Режиссер: Филипп Сомме / Philippe Sommet

Описание: Музыкальная передача Musique Acoustic канала французского телевидения TV5MONDE представляет преимущественно французских же талантливых молодых исполнителей, чье живое выступление в студии без зрителей может состоять из одной или нескольких песен, иногда передача бывает полностью посвящена одному исполнителю, презентующему новый альбом. Musique Acoustic выходит в эфир раз в 1-2 недели. Ведущим передачи c 2006 года является ее создатель - популярный радио – и телеведущий - Sébastien Folin, получивший известность в 2005 году серией из 20 коротких программ для TF1 "Любовь в 20 лет".

Сегодня в студии алжирская R’n’B певица Zaho, ныне проживающая в Монреале и Квебеке, представит свой последний альбом Contagieuse (2012).

Треклист:
01. Quelqu’un d’autre
02. Tout est pareil
03. Tourner la page
04. Imagine
05. Divisés
Передачи Musique Acoustic
Источник: запись со спутника (канал TV5MONDE).

Качество: DVB
Контейнер: MPEG-PS (См. при проблемах с просмотром видео)
Видео кодек: MPEG2
Аудио кодек: MP2
Видео: MPEG Video 2, 720x576@1024x576 (16:9), 25 fps, ~3836 kbps avg, ~0.370 bit/pixel
Аудио: 48 kHz, MPEG Audio 2, 2 ch, ~192.00 kbps avg
Полное имя : H:\My Torrents\[apreder]TV5MONDE_Musique_Acoustic\[apreder]TV5MONDE_Musique_Aqoustic(17.11.2013)DVB.mpgФормат : MPEG-PSРазмер файла : 792 МбайтПродолжительность : 26 м.Режим общего битрейта : ПеременныйОбщий поток : 4110 Кбит/сек

ВидеоИдентификатор : 224 (0xE0)Формат : MPEG VideoВерсия формата : Version 2Профиль формата : Main@MainПараметр BVOP формата : ДаПараметр матрицы формата : ВыборочнаяПараметр GOP формата : M=3, N=24Продолжительность : 26 м.Вид битрейта : ПеременныйБитрейт : 3836 Кбит/секШирина : 720 пикселейВысота : 576 пикселейСоотношение сторон : 16:9Частота кадров : 25,000 кадров/секСтандарт вещания : PALЦветовое пространство : YUVСубдискретизация насыщенности : 4:2:0Битовая глубина : 8 битМетод сжатия : С потерямиБит/(Пиксели*Кадры) : 0.370Временной код первого кадра : 00:00:00:00Оригинал временного кода : Group of pictures headerРазмер потока : 739 Мбайт (93%)

АудиоИдентификатор : 192 (0xC0)Формат : MPEG AudioВерсия формата : Version 1Профиль формата : Layer 2Продолжительность : 26 м.Вид битрейта : ПостоянныйБитрейт : 192 Кбит/секКаналы : 2 каналаЧастота : 48,0 КГцМетод сжатия : С потерямиРазмер потока : 37,0 Мбайт (5%)

1''058/1''040√

Внимание! AdBlock блокирует показ скриншотов, все вопросы к разработчикам )))
Трекер:  [ 05-Дек-2013 14:07 ]

  

Скачать .torrent

Размер .torrent файла 16 KB


Размер: 792 MB
Хэш (hash) релиза: 5ad005d8e81af2fced89fa2523fffa25efc114c0
Superjob
dpd RU

bot

Топик был перенесен в форум Rap, Hip-Hop, R'n'B (video)

Перенес Galfimbul

Хотите добавить комментарий к записи скачать торрент Zaho - Contagieuse - Musique Acoustic от 17.11.2013 - TV5MONDE

!Обратная связь