Скачать через торрент музыку Anacondaz Live Н.Новгород 16.11.2013 бесплатно без регистрации torrent

Статистика раздачи
Размер:  4.71 GB   |    Зарегистрирован:  6 лет 7 месяцев   |    .torrent скачан:  53 раза   |   
Раздают:  1  
 

Скачать Anacondaz Live Н.Новгород 16.11.2013 [2013, Pauzern Rap, Hip-Hop, HDCamRip] через torrent

 
Timeweb Many GEOs Sprinthost
загрузка...
 
Автор Сообщение

Galfimbul ghost

avatar Galfimbul ghost


Anacondaz Live Н.Новгород 16.11.2013

Жанр: Pauzern Rap, Hip-Hop
Продолжительность: 1:31:46
Год выпуска: 2013
Camera: Tomegatherion

Описание:
http://vk.com/event59393531
http://zvuk.in/afisha/20992

Качество: HDCamRip
Контейнер: MP4
Видео кодек: H.264
Аудио кодек: AAC
Видео: AVC; 1920x1080 (16:9); 7092 kbps; 25 fps
Аудио: AAC LC; 253 Kbps; VBR; 2 ch; 16 bit
GeneralComplete name : G:\Torrent\_Мои раздачи\Anacondaz_NN_16.11.2013.mp4Format : MPEG-4Format profile : Base Media / Version 2Codec ID : mp42File size : 4.71 GiBDuration : 1h 31mnOverall bit rate mode : VariableOverall bit rate : 7 349 KbpsEncoded date : UTC 2013-11-16 21:16:39Tagged date : UTC 2013-11-16 21:18:36©TIM : 00:00:00:00©TSC : 25©TSZ : 1

VideoID : 1Format : AVCFormat/Info : Advanced Video CodecFormat profile : Main@L4.2Format settings, CABAC : YesFormat settings, ReFrames : 3 framesFormat settings, GOP : M=4, N=25Codec ID : avc1Codec ID/Info : Advanced Video CodingDuration : 1h 31mnBit rate : 7 092 KbpsWidth : 1 920 pixelsHeight : 1 080 pixelsDisplay aspect ratio : 16:9Frame rate mode : VariableFrame rate : 25.000 fpsMinimum frame rate : 25.000 fpsMaximum frame rate : 25.025 fpsStandard : PALColor space : YUVChroma subsampling : 4:2:0Bit depth : 8 bitsScan type : ProgressiveBits/(Pixel*Frame) : 0.137Stream size : 4.55 GiB (96%)Language : EnglishEncoded date : UTC 2013-11-16 21:16:39Tagged date : UTC 2013-11-16 21:16:39mdhd_Duration : 5506720

AudioID : 2Format : AACFormat/Info : Advanced Audio CodecFormat profile : LCCodec ID : 40Duration : 1h 31mnSource duration : 1h 31mnBit rate mode : VariableBit rate : 253 KbpsMaximum bit rate : 356 KbpsChannel(s) : 2 channelsChannel positions : Front: L RSampling rate : 48.0 KHzCompression mode : LossyStream size : 166 MiB (3%)Source stream size : 166 MiB (3%)Language : EnglishEncoded date : UTC 2013-11-16 21:16:39Tagged date : UTC 2013-11-16 21:16:39mdhd_Duration : 5506774
0:00:00 Интро
0:01:45 Пять пальцев
0:05:05 69
0:08:45 Дома посижу
0:12:31 Рассвет мертвецов
0:15:22 Грязные мысли
0:18:57 Лузер
0:22:46 В офисе
0:26:26 Эволюция
0:30:52 Беляши
0:34:17 Марио
0:37:16 Фотошоп
0:41:06 Круглый год
0:44:58 Мой муж
0:47:18 Мы сами
0:50:39 Смертельное оружие
0:55:06 Трус
0:58:34 Радуга
1:02:23 Грустный
1:06:24 Вперед за баблом
1:10:16 Гулять
1:13:34 Флаг
1:18:01 Поколение
1:24:22 Всем пиздец
1:27:48 Панч На панче


Внимание! AdBlock блокирует показ скриншотов, все вопросы к разработчикам )))
Трекер:  [ 05-Дек-2013 14:07 ]

  

Скачать .torrent

Размер .torrent файла 24 KB


Размер: 4.71 GB
Хэш (hash) релиза: 8cdfeb17613a25d8daea3412a2c1cfcd2aaed8af
Superjob
dpd RU

bot

Топик был перенесен в форум Rap, Hip-Hop, R'n'B (video)

Перенес Galfimbul

Хотите добавить комментарий к записи скачать торрент Anacondaz Live Н.Новгород 16.11.2013

!Обратная связь