Скачать через торрент Клинок Королевы: Восстание ТВ-3 Queens Blade: Rebellion бесплатно Аниме Все серии на русском torrent

Статистика раздачи
Размер:  63.19 GB   |    Зарегистрирован:  8 лет 11 месяцев   |    .torrent скачан:  113 раз   |   
Раздают:  1  
   
 
Автор Сообщение

Polarnik

avatar Polarnik


Клинок Королевы [ТВ-3] / Queen''s Blade: Rebellion / クイーンズブレイド リベリオン

Страна: Япония
Год выпуска: 2012 г.
Жанр: боевые искусства, фэнтези, этти
Тип: TV
Продолжительность: (12 эпизодов + 6 спешалов) 25 минут
Перевод: Субтитры ASS
Русские субтитры: ТВ-3 от Antravoco; Спешалы 1-6 от Antravoco (внешние)

Режиссер: Кагэяма Сигэнори
Студия:

Описание: Добрая королева недолго управляла Гайносом. Рэйна исчезла, оставив трон, где ее сменила сводная сестра Клодетт Генерал Грома, женщина расчетливая и безжалостная. Клодетт быстро уничтожила независимую аристократию и правит железной рукой, расширяя свои владения и подавляя любое недовольство. Она отменила турнир, назначив себя пожизненной владычицей. Неудивительно, что вспыхнул мятеж, который возглавила Аннелотта, принцесса одной из завоеванных земель, девушка с таинственным прошлым. Теперь мятежный рыцарь собирает сторонников, чтобы низложить тирана, ибо законы магического мира такое не запрещают.
Королева Грома сочла ниже своего достоинства лично воевать с кучкой бандитов. Столицу надежно охраняют ее сестра Элина и наемница Юмир, а инквизитор Сигги встала во главе карателей. Сигги – молодая фанатичная жрица, причем истово верит, что правительницу выбирает Всевышний, и противиться Его воле есть тяжкий грех. Теперь сильнейшие бойцы королевства, да и окрестных стран, многие из которых хорошо знакомы зрителям, должны выбрать, за кого сражаться в начавшейся войне. В стороне не останется никто – даже Болотная Ведьма и бывшая королева, полудемон Алдра. Нам же остается переживать за прекрасных воительниц и желать победы… тем, кому поможет судьба. Ждите сюрпризов! И там, у арены, открывайте уже ворота!
© Hollow, World Art

Бонусы: Меню БРД, спешалы, опенинг и эндинг без титров.

Качество: BD-REMUX
Формат: M2TS
Видео кодек: H.264
Аудио кодек: PCM
Наличие линковки: Нет
Видео: AVC 1920x1080; 40000 kbps vbr; 23.976 fps
Аудио: Японский: PCM 48000 Hz stereo 1536kbps 16 bit
Идентификатор : 0 (0x0)Полное имя : XXX.m2tsФормат : BDAVФормат/Информация : Blu-ray VideoРазмер файла : 14,3 ГбайтПродолжительность : 47 м.Режим общего битрейта : ПеременныйОбщий поток : 43,1 Мбит/секМаксимальный общий битрейт : 48,0 Мбит/сек

ВидеоИдентификатор : 4113 (0x1011)Идентификатор меню : 1 (0x1)Формат : AVCФормат/Информация : Advanced Video CodecПрофиль формата : High@L4.1Параметр CABAC формата : ДаПараметр ReFrames формата : 4 кадраИдентификатор кодека : 27Продолжительность : 47 м.Вид битрейта : ПеременныйБитрейт : 40,0 Мбит/секШирина : 1920 пикселейВысота : 1080 пикселейСоотношение сторон : 16:9Частота кадров : 23,976 кадра/секЦветовое пространство : YUVСубдискретизация насыщенности : 4:2:0Битовая глубина : 8 битТип развёртки : ПрогрессивнаяБит/(Пиксели*Кадры) : 0.804Размер потока : 13,2 Гбайт (92%)

АудиоИдентификатор : 4352 (0x1100)Идентификатор меню : 1 (0x1)Формат : PCMПараметр Endianness формата : BigПараметр Sign формата : SignedРежим смешивания : Blu-rayИдентификатор кодека : 128Продолжительность : 47 м.Вид битрейта : ПостоянныйБитрейт : 1536 Кбит/секКаналы : 2 каналаРасположение каналов : Front: L RЧастота : 48,0 КГцБитовая глубина : 16 битРазмер потока : 520 Мбайт (4%)
01. Восставшие воительницы.
02. Святая битва.
03. Заросли, луна и солнце.
04. Неодолимый резонанс.
05. Тайна королевского замка.
06. Венок и скрытая сила.
07. Летающий пиратский корабль.
08. Соблазнительная жёнушка.
09. Встреча с самураем.


Внимание! AdBlock блокирует показ скриншотов, все вопросы к разработчикам )))
Трекер:  [ 30-Ноя-2013 17:18 ]

  

Скачать .torrent

Размер .torrent файла 160 KB


Размер: 63.19 GB
Хэш (hash) релиза: 32a3ffff2445e814fa6a1d38a837c820d7a0963f
Подписка на обновления:

Торренты, похожие на Клинок Королевы: Восстание ТВ-3 Queens Blade: Rebellion скачать торрент

Форум Название Автор Размер S L Добавлен
Аниме | HD Rips ·· Клинок Королевы (ТВ-3): Восстание / Queen's Blade: Rebellion (Кагэяма Сигэнори) [TV+Special] [12+6 из 12+6] [без хардсаба] [RUS(ext), JAP+SUB] [2012 г., боевые искусства, фэнтези, этти, BDRip] [1080p] Galfimbul 3502006258032.61 GB 0 0 1435157794

17:56

24-Июн-15

Аниме | HD Rips ·· Клинок Королевы (ТВ-3): Восстание / Queen's Blade: Rebellion (Кагэяма Сигэнори) [TV+Special] [12+6 из 12+6] [без хардсаба] [RUS(ext), JAP+SUB] [2012 г., боевые искусства, фэнтези, этти, BDRip] [1080p] Galfimbul 3502006258032.61 GB 0 0 1435156119

17:28

24-Июн-15

Аниме | Blu-Ray и BDRemux ·· Клинок Королевы (ТВ-3): Восстание / Queen's Blade: Rebellion (Кагэяма Сигэнори) [TV + Special] [12+6 из 12+6] [без хардсаба] [JAP+SUB] [2012 г., боевые искусства, фэнтези, этти, BDRemux] [1080p] Polarnik 10226599450995.24 GB 0 0 1386967112

23:38

13-Дек-13

Аниме | HD Rips ·· Клинок Королевы (ТВ-3): Восстание / Queen's Blade: Rebellion (Кагэяма Сигэнори) [TV+Special] [12+6 из 12+6] [без хардсаба] [RUS(ext), JAP+SUB] [2012 г., боевые искусства, фэнтези, этти, BDRip] [720p] Polarnik 1084331767910.1 GB 0 0 1382907353

23:55

27-Окт-13

Еще никто не оставлял запись к записи скачать торрент Клинок Королевы: Восстание ТВ-3 Queens Blade: Rebellion . Будь первым!

!Обратная связь