Скачать через торрент музыку Рем Дигга - Судороги бесплатно без регистрации torrent

Статистика раздачи
Размер:  753 MB   |    Зарегистрирован:  6 лет 7 месяцев   |    .torrent скачан:  67 раз   |   
Раздают:  1  
 

Скачать Рем Дигга - Судороги [2013, Hip-Hop, Rap, HDCam] через torrent

 
Timeweb Many GEOs Sprinthost
загрузка...
 
Автор Сообщение

Galfimbul ghost

avatar Galfimbul ghost


Рем Дигга - Судороги

Жанр: Hip-Hop, Rap
Продолжительность: 00:03:30
Год выпуска: 2013
Описание: Клип Рем Дигги на новую песню "Судороги"
Режиссер: Андрей Qval Ковалёв
Музыка: Влади (Каста)
Бэк-вокал: InDika
Качество: HDCam
Контейнер: MP4
Видео кодек: H.264
Аудио кодек: AAC
Видео: AVC, 1920x1080, 30.0 Mbps, 23.976 fps
Аудио: AAC, 192 Kbps, 48.0 KHz, 2 channels
GeneralComplete name : D:\Клипы\Рем Дигга\Рем Дигга - Судороги.mp4Format : MPEG-4Format profile : Base Media / Version 2Codec ID : mp42File size : 753 MiBDuration : 3mn 29sOverall bit rate mode : VariableOverall bit rate : 30.2 MbpsEncoded date : UTC 2013-11-25 15:44:51Tagged date : UTC 2013-11-25 15:44:51©TIM : 00:00:00:00©TSC : 24000©TSZ : 1001

VideoID : 1Format : AVCFormat/Info : Advanced Video CodecFormat profile : Main@L4.2Format settings, CABAC : YesFormat settings, ReFrames : 3 framesCodec ID : avc1Codec ID/Info : Advanced Video CodingDuration : 3mn 29sSource duration : 3mn 29sBit rate mode : ConstantBit rate : 30.0 MbpsNominal bit rate : 32.0 MbpsWidth : 1 920 pixelsHeight : 1 080 pixelsDisplay aspect ratio : 16:9Frame rate mode : VariableFrame rate : 23.976 fpsMinimum frame rate : 23.976 fpsMaximum frame rate : 24.000 fpsStandard : PALColor space : YUVChroma subsampling : 4:2:0Bit depth : 8 bitsScan type : ProgressiveBits/(Pixel*Frame) : 0.603Stream size : 748 MiB (99%)Source stream size : 748 MiB (99%)Language : EnglishEncoded date : UTC 2013-11-25 15:44:51Tagged date : UTC 2013-11-25 15:44:51mdhd_Duration : 209334

AudioID : 2Format : AACFormat/Info : Advanced Audio CodecFormat profile : LCCodec ID : 40Duration : 3mn 29sSource duration : 3mn 29sBit rate mode : VariableBit rate : 192 KbpsMaximum bit rate : 309 KbpsChannel(s) : 2 channelsChannel positions : Front: L RSampling rate : 48.0 KHzCompression mode : LossyStream size : 4.73 MiB (1%)Source stream size : 4.73 MiB (1%)Language : EnglishEncoded date : UTC 2013-11-25 15:44:51Tagged date : UTC 2013-11-25 15:44:51mdhd_Duration : 209387


Внимание! AdBlock блокирует показ скриншотов, все вопросы к разработчикам )))
Трекер:  [ 05-Дек-2013 14:07 ]

  

Скачать .torrent

Размер .torrent файла 15 KB


Размер: 753 MB
Хэш (hash) релиза: 9f4f49c3208cdc6bb7f535a08b6bea03d43f1111
Superjob
dpd RU

bot

Топик был перенесен в форум Rap, Hip-Hop, R'n'B (video)

Перенес Galfimbul

Хотите добавить комментарий к записи скачать торрент Рем Дигга - Судороги

!Обратная связь