Скачать через торрент музыку Brick Bazuka - Слои бесплатно без регистрации torrent

Статистика раздачи
Размер:  153 MB   |    Зарегистрирован:  7 лет 9 месяцев   |    .torrent скачан:  68 раз   |   
Раздают:  1  
 

Скачать Brick Bazuka - Слои [2013, Underground Rap, Hip-Hop, HDCamRip 720p] через torrent

 
 
Автор Сообщение

Galfimbul

avatar Galfimbul


Brick Bazuka - Слои
Жанр: Underground Rap, Hip-Hop
Продолжительность: 00:02:58
Год выпуска: 2013
Описание: Клип Brick Bazuki на песню Слои
Источник: представлено SHMELJR
Альбом: "Слои" 2012 г.
Музыка: Young Beats
Видеопроизводство: SHMELJR
Качество: HDCamRip 720p
Контейнер: MOV
Видео кодек: H.264
Аудио кодек: AAC
Видео: AVC, 1280x720, 6 915 Kbps, 25.000 fps
Аудио: AAC, 256 kbps, 48.0 KHz, 2 channels
GeneralComplete name : D:\Клипы\Brick Bazuka - Слои.movFormat : MPEG-4Format profile : QuickTimeCodec ID : qtFile size : 153 MiBDuration : 2mn 58sOverall bit rate mode : VariableOverall bit rate : 7 190 KbpsEncoded date : UTC 2013-11-17 13:44:01Tagged date : UTC 2013-11-20 22:17:48Writing application : Mac OS X v10.7.5 (CMA 891, CM 705.94, x86_64)Writing library : Apple QuickTime©TIM : 00:00:00:00©TSC : 25©TSZ : 1

VideoID : 2Format : AVCFormat/Info : Advanced Video CodecFormat profile : High@L3.1Format settings, CABAC : NoFormat settings, ReFrames : 2 framesCodec ID : avc1Codec ID/Info : Advanced Video CodingDuration : 2mn 58sBit rate mode : VariableBit rate : 6 915 KbpsMaximum bit rate : 12.7 MbpsWidth : 1 280 pixelsHeight : 720 pixelsDisplay aspect ratio : 16:9Frame rate mode : ConstantFrame rate : 25.000 fpsColor space : YUVChroma subsampling : 4:2:0Bit depth : 8 bitsScan type : ProgressiveBits/(Pixel*Frame) : 0.300Stream size : 147 MiB (96%)Title : Core Media VideoLanguage : EnglishEncoded date : UTC 2013-11-17 13:44:01Tagged date : UTC 2013-11-17 13:46:42Color primaries : BT.709Transfer characteristics : BT.709Matrix coefficients : BT.709

AudioID : 1Format : AACFormat/Info : Advanced Audio CodecFormat profile : LCCodec ID : 40Duration : 2mn 58sSource duration : 2mn 58sBit rate mode : ConstantBit rate : 256 KbpsChannel(s) : 2 channelsChannel positions : Front: L RSampling rate : 48.0 KHzCompression mode : LossyStream size : 5.55 MiB (4%)Source stream size : 5.55 MiB (4%)Title : Core Media AudioLanguage : EnglishEncoded date : UTC 2013-11-17 13:44:01Tagged date : UTC 2013-11-17 13:46:42


Внимание! AdBlock блокирует показ скриншотов, все вопросы к разработчикам )))
Трекер:  [ 05-Дек-2013 14:07 ]

  

Скачать .torrent

Размер .torrent файла 12 KB


Размер: 153 MB
Хэш (hash) релиза: 554c4b5172e5faf5653a405fb33cd01d9e4da7f9

bot

Топик был перенесен в форум Rap, Hip-Hop, R'n'B (video)

Перенес Galfimbul

Хотите добавить комментарий к записи скачать торрент Brick Bazuka - Слои

!Обратная связь