Скачать через торрент музыку бесплатно без регистрации torrent

Статистика раздачи
Размер:  1.59 GB   |    Зарегистрирован:  5 лет 11 месяцев   |    .torrent скачан:  81 раз   |   
Раздают:  1  
 

Скачать (Easy Listening, Christmas) [CD] VA - The Best Christmas ...Ever! - 2006, FLAC (tracks+.cue), lossless через torrent

 
загрузка...
 
Автор Сообщение

Galfimbul

avatar Galfimbul


The Best Christmas ...Ever!





Жанр: Easy Listening, Christmas | Носитель: CD | Страна-производитель диска: EU | Год издания: 2006 | Издатель (лейбл): EMI Music Poland | Номер по каталогу: 3784682 | Аудиокодек: FLAC (*.flac) | Тип рипа: tracks+.cue | Битрейт аудио: lossless | Продолжительность: 4:15:50 | Источник (релизер): Собственный рип | Наличие сканов в содержимом раздачи: нет
01. Queen - Thank God It''s Christmas (4:21)
02. Chris Rea - Driving Home For Christmas (3:58)
03. Jamie Cullum - Next Year, Baby (4:46)
04. The Moody Blues - Don''t Need A Reindeer (3:59)
05. Paul McCartney - Wonderful Christmas Time (3:46)
06. Stacie Orrico - O Come, All Ye Faithful (3:59)
07. The Band - Christmas Must Be Tonight (3:38)
08. Wizzard - I Wish It Could Be Christmas Everyday (4:40)
09. The Jackson 5 - Frosty The Snowman (2:38)
10. Jose Feliciano - Feliz Navidad (3:03)
11. Cliff Richard - Mistletoe And Wine (3:53)
12. Slade - Merry Xmas Everybody (3:44)
13. Jethro Tull - Ring Out Solstice Bells (3:35)
14. Billie - Last Christmas (5:02)
15. Band Aid - Do They Know It''s Christmas? (3:43)
16. Faith Evans - Soulful Christmas (3:07)
17. Mindi Abair - I Can''t Wait For Christmas (3:35)
18. Dave Koz - December Makes Me Feel This Way (3:23)
19. Kate Winslet - What If (4:05)
20. Sinead O''Connor - Silent Night Holy Night (3:41)
21. Krzysztof Kiljanski - Od Swiat Do Swiat (3:35)
22. Czerwone Gitary - Dzien Jeden W Roku (2:27)
23. Katarzyna Skrzynecka - Oszaleli Anieli (3:55)
24. Mietek Szczesniak, Kayah - Raduj Sie Swiecie (2:45)
25. Quligowsy - Z Kopyta Kulig Rwie (3:48)
26. Ewelina Flinta - Mikolaj Jedzie Tu Znow (3:00)
27. Why Not? - On Christmas Day (3:58)
28. Anita Lipnicka - Winter Song (2:20)
29. PiN - Swiety czas (4:06)
30. Raz Dwa Trzy - Pod Niebem (5:35)
31. Anna Maria Jopek, Jeremi Przybora - Na Calej Polaci Snieg (2:20)
32. Grzegorz Turnau - Platki, Oplatki (3:15)
33. Edyta Gorniak, Krzysztof Antkowiak - Pada Snieg (4:17)
34. Norbi - Choinka Norbiego (3:55)
35. Ha-dwa-o! - Magia Swiat (4:03)
36. Roaan - Ten Zimowy Czas (3:41)
37. Zbigniew Wodecki, Cezary Klimczak - Magia Swiat (3:40)
38. Andy Williams - Sleigh Ride (2:08)
39. Dean Martin - Let It Snow! Let It Snow! Let It Snow! (1:56)
40. Les Baxter - Santa Claus Party (2:10)
41. Kay Starr - Everybodys Waitin For The Man With The Bag (2:42)
42. The Beach Boys - Santa Claus Is Comin To Town (2:20)
43. Mel & Kim - Rockin'' Around The Christmas Tree (3:34)
44. Ray Anthony and His Bookends - Christmas Kisses (2:00)
45. Bing Crosby - Jingle Bells (2:37)
46. Diana Decker - I''m a Little Christmas Cracker (1:57)
47. Lou Rawls - Have Yourself a very Merry Christmas (3:39)
48. Ella Fitzgerald - God Rest Ye Merry Gentlemen (1:27)
49. Julie London - Warm December (1:57)
50. Nancy Wilson - What Are You Doing New Year''s Eve (2:25)
51. Matt Monro - Mary''s Boy Child (3:20)
52. Louis Armstrong - White Christmas (2:39)
53. Mud - Lonely This Christmas (3:34)
54. The Scaffold - Lily The Pink (4:22)
55. Glen Campbell - Ill Be Home for Christmas (2:45)
56. Adam Faith - Lonely Pup (in a Christmas Shop) (1:48)
57. Alma Cogan - Never do a Tango with an Eskimo (2:12)
58. Gracie Fields - Little Donkey (3:33)
59. The Spinners - The Twelve Days Of Christmas (3:54)
60. Al Martino - Silver Bells (3:11)
61. Mazowsze - Wsrod nocnej ciszy (3:32)
62. Anna Maria Jopek - Gdy sie Chrystus rodzi (3:16)
63. Krzysztof Krawczyk - Przybiezeli do Betlejem (2:54)
64. Hanna Banaszak - W zlobie lezy (2:36)
65. Ryszard Rynkowski - Hej, w dzien narodzenia (1:29)
66. Maciej Balcar, Natalia Kukulska, Kasia Stankiewicz, Andrzej Piaseczny - Dzisiaj w Betlejem (4:05)
67. Katarzyna Groniec - Jezus malusieki (2:53)
68. Stanislaw Soyka - A wczora z wieczora (0:54)
69. Halina Frackowiak Alicja Majewska - Lulajze Jezuniu (2:53)
70. Ryszard Rynkowski - Cicha Noc (4:39)
71. Jerzy Polomski - Medrcy swiata (3:32)
72. Natalia Kukulska - Gdy sliczna Panna (5:21)
73. Michal Bajor - Pasterze mili (2:04)
74. Zbigniew Wodecki - Oj, maluski maluski (3:54)
75. Golec Orkiestra - Pojdzmy wszyscy do stajenki (2:55)
76. Irena Santor - Z narodzenia Pana (2:08)
77. Pospieszalscy - Polnoc juz byla (4:25)
78. Mazowsze - Bog sie rodzi (2:52)
Exact Audio Copy V1.0 beta 3 from 29. August 2011

EAC extraction logfile from 21. December 2013, 14:38

Various / The Best Christmas ...Ever!

Used drive : MATSHITADVD-RAM UJ8B0 Adapter: 0 ID: 0

Read mode : SecureUtilize accurate stream : YesDefeat audio cache : YesMake use of C2 pointers : No

Read offset correction : 102Overread into Lead-In and Lead-Out : NoFill up missing offset samples with silence : YesDelete leading and trailing silent blocks : NoNull samples used in CRC calculations : YesUsed interface : Native Win32 interface for Win NT & 2000Gap handling : Appended to previous track

Used output format : User Defined EncoderSelected bitrate : 1024 kBit/sQuality : HighAdd ID3 tag : NoCommand line compressor : V:\Program Files\EAC 1.0 beta 3\App\EAC\FLAC\flac.exeAdditional command line options : -8 -V -T "ARTIST=%artist%" -T "TITLE=%title%" -T "ALBUM=%albumtitle%" -T "DATE=%year%" -T "TRACKNUMBER=%tracknr%" -T "GENRE=%genre%" -T "PERFORMER=%albuminterpret%" -T "COMPOSER=%composer%" %haslyrics%--tag-from-file=LYRICS="%lyricsfile%"%haslyrics% -T "ALBUMARTIST=%albumartist%" -T "DISCNUMBER=%cdnumber%" -T "TOTALDISCS=%totalcds%" -T "TOTALTRACKS=%numtracks%" -T "COMMENT=%comment%" %source% -o %dest%

TOC of the extracted CD

Track | Start | Length | Start sector | End sector --------------------------------------------------------- 1 | 0:00.00 | 4:21.17 | 0 | 19591 2 | 4:21.17 | 3:57.64 | 19592 | 37430 3 | 8:19.06 | 4:45.54 | 37431 | 58859 4 | 13:04.60 | 3:58.71 | 58860 | 76780 5 | 17:03.56 | 3:46.19 | 76781 | 93749 6 | 20:50.00 | 3:59.37 | 93750 | 111711 7 | 24:49.37 | 3:37.70 | 111712 | 128056 8 | 28:27.32 | 4:40.03 | 128057 | 149059 9 | 33:07.35 | 2:38.01 | 149060 | 160910 10 | 35:45.36 | 3:02.57 | 160911 | 174617 11 | 38:48.18 | 3:53.37 | 174618 | 192129 12 | 42:41.55 | 3:43.51 | 192130 | 208905 13 | 46:25.31 | 3:35.36 | 208906 | 225066 14 | 50:00.67 | 5:01.50 | 225067 | 247691 15 | 55:02.42 | 3:42.58 | 247692 | 264399 16 | 58:45.25 | 3:07.21 | 264400 | 278445 17 | 61:52.46 | 3:35.25 | 278446 | 294595 18 | 65:27.71 | 3:22.50 | 294596 | 309795 19 | 68:50.46 | 4:05.00 | 309796 | 328170 20 | 72:55.46 | 3:41.06 | 328171 | 344751

Track 1

Filename C:\The Best Christmas ...Ever! (EMI Music Poland, 3784682)\01 - Queen - Thank God It''s Christmas.wav

Pre-gap length 0:00:02.00

Peak level 97.7 % Extraction speed 1.2 X Track quality 100.0 % Test CRC D687D2D0 Copy CRC D687D2D0 Accurately ripped (confidence 8) [FA1E21D3] (AR v2) Copy OK

Track 2

Filename C:\The Best Christmas ...Ever! (EMI Music Poland, 3784682)\02 - Chris Rea - Driving Home For Christmas.wav

Pre-gap length 0:00:02.00

Peak level 97.7 % Extraction speed 1.3 X Track quality 100.0 % Test CRC 17880A33 Copy CRC 17880A33 Accurately ripped (confidence 8) [82562495] (AR v2) Copy OK

Track 3

Filename C:\The Best Christmas ...Ever! (EMI Music Poland, 3784682)\03 - Jamie Cullum - Next Year, Baby.wav

Pre-gap length 0:00:02.00

Peak level 98.8 % Extraction speed 1.5 X Track quality 100.0 % Test CRC E7BBA7D6 Copy CRC E7BBA7D6 Accurately ripped (confidence 8) [8664FD64] (AR v2) Copy OK

Track 4

Filename C:\The Best Christmas ...Ever! (EMI Music Poland, 3784682)\04 - The Moody Blues - Don''t Need A Reindeer.wav

Pre-gap length 0:00:01.98

Peak level 98.5 % Extraction speed 1.6 X Track quality 100.0 % Test CRC 4BE06E79 Copy CRC 4BE06E79 Accurately ripped (confidence 8) [54E50796] (AR v2) Copy OK

Track 5

Filename C:\The Best Christmas ...Ever! (EMI Music Poland, 3784682)\05 - Paul McCartney - Wonderful Christmas Time.wav

Pre-gap length 0:00:02.00

Peak level 97.7 % Extraction speed 1.6 X Track quality 100.0 % Test CRC 3F0E4165 Copy CRC 3F0E4165 Accurately ripped (confidence 8) [4D96CBC7] (AR v2) Copy OK

Track 6

Filename C:\The Best Christmas ...Ever! (EMI Music Poland, 3784682)\06 - Stacie Orrico - O Come, All Ye Faithful.wav

Pre-gap length 0:00:02.00

Peak level 96.6 % Extraction speed 1.7 X Track quality 100.0 % Test CRC 661EB7DD Copy CRC 661EB7DD Accurately ripped (confidence 8) [ED1C6519] (AR v2) Copy OK

Track 7

Filename C:\The Best Christmas ...Ever! (EMI Music Poland, 3784682)\07 - The Band - Christmas Must Be Tonight.wav

Pre-gap length 0:00:02.00

Peak level 97.7 % Extraction speed 1.8 X Track quality 100.0 % Test CRC 829CDFC5 Copy CRC 829CDFC5 Accurately ripped (confidence 8) [118D8A50] (AR v2) Copy OK

Track 8

Filename C:\The Best Christmas ...Ever! (EMI Music Poland, 3784682)\08 - Wizzard - I Wish It Could Be Christmas Everyday.wav

Pre-gap length 0:00:02.00

Peak level 97.7 % Extraction speed 1.9 X Track quality 100.0 % Test CRC BF0F18FC Copy CRC BF0F18FC Accurately ripped (confidence 8) [FA0CD4D5] (AR v2) Copy OK

Track 9

Filename C:\The Best Christmas ...Ever! (EMI Music Poland, 3784682)\09 - The Jackson 5 - Frosty The Snowman.wav

Pre-gap length 0:00:02.00

Peak level 98.8 % Extraction speed 1.5 X Track quality 99.9 % Test CRC C3F80565 Copy CRC C3F80565 Accurately ripped (confidence 7) [717106DC] (AR v2) Copy OK

Track 10

Filename C:\The Best Christmas ...Ever! (EMI Music Poland, 3784682)\10 - Jose Feliciano - Feliz Navidad.wav

Pre-gap length 0:00:01.00

Peak level 97.7 % Extraction speed 1.9 X Track quality 100.0 % Test CRC 75A92791 Copy CRC 75A92791 Accurately ripped (confidence 8) [D83886F7] (AR v2) Copy OK

Track 11

Filename C:\The Best Christmas ...Ever! (EMI Music Poland, 3784682)\11 - Cliff Richard - Mistletoe And Wine.wav

Pre-gap length 0:00:02.00

Peak level 97.7 % Extraction speed 2.1 X Track quality 100.0 % Test CRC 51491C2E Copy CRC 51491C2E Accurately ripped (confidence 8) [F74C0553] (AR v2) Copy OK

Track 12

Filename C:\The Best Christmas ...Ever! (EMI Music Poland, 3784682)\12 - Slade - Merry Xmas Everybody.wav

Pre-gap length 0:00:02.00

Peak level 97.7 % Extraction speed 2.1 X Track quality 100.0 % Test CRC 6BFF367C Copy CRC 6BFF367C Accurately ripped (confidence 8) [678029F1] (AR v2) Copy OK

Track 13

Filename C:\The Best Christmas ...Ever! (EMI Music Poland, 3784682)\13 - Jethro Tull - Ring Out Solstice Bells.wav

Pre-gap length 0:00:02.00

Peak level 97.7 % Extraction speed 1.9 X Track quality 99.9 % Test CRC D7828525 Copy CRC D7828525 Accurately ripped (confidence 8) [9C3BD404] (AR v2) Copy OK

Track 14

Filename C:\The Best Christmas ...Ever! (EMI Music Poland, 3784682)\14 - Billie - Last Christmas.wav

Pre-gap length 0:00:02.00

Peak level 96.6 % Extraction speed 2.3 X Track quality 100.0 % Test CRC C8111887 Copy CRC C8111887 Accurately ripped (confidence 8) [3C8E7F4C] (AR v2) Copy OK

Track 15

Filename C:\The Best Christmas ...Ever! (EMI Music Poland, 3784682)\15 - Band Aid - Do They Know It''s Christmas.wav

Pre-gap length 0:00:02.00

Peak level 97.7 % Extraction speed 2.0 X Track quality 99.9 % Test CRC 7CDF5C1D Copy CRC 7CDF5C1D Accurately ripped (confidence 7) [00B4FFF9] (AR v2) Copy OK

Track 16

Filename C:\The Best Christmas ...Ever! (EMI Music Poland, 3784682)\16 - Faith Evans - Soulful Christmas.wav

Pre-gap length 0:00:02.00

Peak level 99.8 % Extraction speed 2.3 X Track quality 100.0 % Test CRC 1F690AF6 Copy CRC 1F690AF6 Accurately ripped (confidence 8) [2D493D5C] (AR v2) Copy OK

Track 17

Filename C:\The Best Christmas ...Ever! (EMI Music Poland, 3784682)\17 - Mindi Abair - I Can''t Wait For Christmas.wav

Pre-gap length 0:00:02.00

Peak level 97.7 % Extraction speed 2.4 X Track quality 100.0 % Test CRC 57CFB59F Copy CRC 57CFB59F Accurately ripped (confidence 8) [CE39EA35] (AR v2) Copy OK

Track 18

Filename C:\The Best Christmas ...Ever! (EMI Music Poland, 3784682)\18 - Dave Koz - December Makes Me Feel This Way.wav

Pre-gap length 0:00:02.00

Peak level 97.7 % Extraction speed 2.4 X Track quality 100.0 % Test CRC 45AB2BAD Copy CRC 45AB2BAD Accurately ripped (confidence 8) [513664C0] (AR v2) Copy OK

Track 19

Filename C:\The Best Christmas ...Ever! (EMI Music Poland, 3784682)\19 - Kate Winslet - What If.wav

Pre-gap length 0:00:02.00

Peak level 97.7 % Extraction speed 2.3 X Track quality 99.9 % Test CRC 31E347E1 Copy CRC 31E347E1 Accurately ripped (confidence 8) [C15D21B3] (AR v2) Copy OK

Track 20

Filename C:\The Best Christmas ...Ever! (EMI Music Poland, 3784682)\20 - Sinead O''Connor - Silent Night Holy Night.wav

Pre-gap length 0:00:02.00

Peak level 97.7 % Extraction speed 2.3 X Track quality 99.9 % Test CRC F40461FF Copy CRC F40461FF Accurately ripped (confidence 8) [A8A834BD] (AR v2) Copy OK

All tracks accurately ripped

No errors occurred

End of status report

==== Log checksum 14C59C6C02E06BAB1C6646A1EB0B1566AC430F2131B12C013B51B92E597FEB86 ====
Exact Audio Copy V1.0 beta 3 from 29. August 2011

EAC extraction logfile from 21. December 2013, 17:07

Various / The Best Christmas ...Ever!

Used drive : MATSHITADVD-RAM UJ8B0 Adapter: 0 ID: 0

Read mode : SecureUtilize accurate stream : YesDefeat audio cache : YesMake use of C2 pointers : No

Read offset correction : 102Overread into Lead-In and Lead-Out : NoFill up missing offset samples with silence : YesDelete leading and trailing silent blocks : NoNull samples used in CRC calculations : YesUsed interface : Native Win32 interface for Win NT & 2000Gap handling : Appended to previous track

Used output format : User Defined EncoderSelected bitrate : 1024 kBit/sQuality : HighAdd ID3 tag : NoCommand line compressor : V:\Program Files\EAC 1.0 beta 3\App\EAC\FLAC\flac.exeAdditional command line options : -8 -V -T "ARTIST=%artist%" -T "TITLE=%title%" -T "ALBUM=%albumtitle%" -T "DATE=%year%" -T "TRACKNUMBER=%tracknr%" -T "GENRE=%genre%" -T "PERFORMER=%albuminterpret%" -T "COMPOSER=%composer%" %haslyrics%--tag-from-file=LYRICS="%lyricsfile%"%haslyrics% -T "ALBUMARTIST=%albumartist%" -T "DISCNUMBER=%cdnumber%" -T "TOTALDISCS=%totalcds%" -T "TOTALTRACKS=%numtracks%" -T "COMMENT=%comment%" %source% -o %dest%

TOC of the extracted CD

Track | Start | Length | Start sector | End sector --------------------------------------------------------- 1 | 0:00.00 | 3:35.14 | 0 | 16138 2 | 3:35.14 | 2:26.42 | 16139 | 27130 3 | 6:01.56 | 3:55.17 | 27131 | 44772 4 | 9:56.73 | 2:44.38 | 44773 | 57110 5 | 12:41.36 | 3:47.45 | 57111 | 74180 6 | 16:29.06 | 2:59.60 | 74181 | 87665 7 | 19:28.66 | 3:57.62 | 87666 | 105502 8 | 23:26.53 | 2:20.27 | 105503 | 116029 9 | 25:47.05 | 4:05.74 | 116030 | 134478 10 | 29:53.04 | 5:34.53 | 134479 | 159581 11 | 35:27.57 | 2:20.02 | 159582 | 170083 12 | 37:47.59 | 3:14.65 | 170084 | 184698 13 | 41:02.49 | 4:17.33 | 184699 | 204006 14 | 45:20.07 | 3:54.57 | 204007 | 221613 15 | 49:14.64 | 4:03.24 | 221614 | 239862 16 | 53:18.13 | 3:40.67 | 239863 | 256429 17 | 56:59.05 | 3:40.17 | 256430 | 272946

Track 1

Filename C:\The Best Christmas ...Ever! (EMI Music Poland, 3784682)\21 - Krzysztof Kiljanski - Od Swiat Do Swiat.wav

Pre-gap length 0:00:02.00

Peak level 96.6 % Extraction speed 1.1 X Track quality 100.0 % Test CRC C9E8DBB5 Copy CRC C9E8DBB5 Accurately ripped (confidence 6) [3315C003] (AR v2) Copy OK

Track 2

Filename C:\The Best Christmas ...Ever! (EMI Music Poland, 3784682)\22 - Czerwone Gitary - Dzien Jeden W Roku.wav

Pre-gap length 0:00:02.00

Peak level 97.7 % Extraction speed 1.1 X Track quality 100.0 % Test CRC D914FF19 Copy CRC D914FF19 Accurately ripped (confidence 6) [73B81C3B] (AR v2) Copy OK

Track 3

Filename C:\The Best Christmas ...Ever! (EMI Music Poland, 3784682)\23 - Katarzyna Skrzynecka - Oszaleli Anieli.wav

Pre-gap length 0:00:01.98

Peak level 96.6 % Extraction speed 1.3 X Track quality 100.0 % Test CRC 012FFD34 Copy CRC 012FFD34 Accurately ripped (confidence 6) [21962AEB] (AR v2) Copy OK

Track 4

Filename C:\The Best Christmas ...Ever! (EMI Music Poland, 3784682)\24 - Mietek Szczesniak, Kayah - Raduj Sie Swiecie.wav

Pre-gap length 0:00:02.00

Peak level 97.7 % Extraction speed 1.3 X Track quality 100.0 % Test CRC 3E5D2800 Copy CRC 3E5D2800 Accurately ripped (confidence 6) [E3CD7315] (AR v2) Copy OK

Track 5

Filename C:\The Best Christmas ...Ever! (EMI Music Poland, 3784682)\25 - Quligowsy - Z Kopyta Kulig Rwie.wav

Pre-gap length 0:00:02.00

Peak level 100.0 % Extraction speed 1.5 X Track quality 100.0 % Test CRC 85B3BD32 Copy CRC 85B3BD32 Accurately ripped (confidence 5) [E0C4EE5F] (AR v2) Copy OK

Track 6

Filename C:\The Best Christmas ...Ever! (EMI Music Poland, 3784682)\26 - Ewelina Flinta - Mikolaj Jedzie Tu Znow.wav

Pre-gap length 0:00:02.00

Peak level 99.6 % Extraction speed 1.5 X Track quality 100.0 % Test CRC 95930F3F Copy CRC 95930F3F Accurately ripped (confidence 5) [29B5387D] (AR v2) Copy OK

Track 7

Filename C:\The Best Christmas ...Ever! (EMI Music Poland, 3784682)\27 - Why Not - On Christmas Day.wav

Pre-gap length 0:00:02.00

Peak level 99.6 % Extraction speed 1.7 X Track quality 100.0 % Test CRC 97F605BF Copy CRC 97F605BF Accurately ripped (confidence 5) [286CFAB0] (AR v2) Copy OK

Track 8

Filename C:\The Best Christmas ...Ever! (EMI Music Poland, 3784682)\28 - Anita Lipnicka - Winter Song.wav

Pre-gap length 0:00:01.98

Peak level 97.7 % Extraction speed 1.6 X Track quality 100.0 % Test CRC 51D5303C Copy CRC 51D5303C Accurately ripped (confidence 5) [117BE44A] (AR v2) Copy OK

Track 9

Filename C:\The Best Christmas ...Ever! (EMI Music Poland, 3784682)\29 - PiN - Swiety czas.wav

Pre-gap length 0:00:02.00

Peak level 99.6 % Extraction speed 1.6 X Track quality 99.9 % Test CRC EA7DF37B Copy CRC EA7DF37B Accurately ripped (confidence 5) [FC5E799B] (AR v2) Copy OK

Track 10

Filename C:\The Best Christmas ...Ever! (EMI Music Poland, 3784682)\30 - Raz Dwa Trzy - Pod Niebem.wav

Pre-gap length 0:00:01.98

Peak level 97.7 % Extraction speed 2.0 X Track quality 100.0 % Test CRC EED400D6 Copy CRC EED400D6 Accurately ripped (confidence 5) [B10BB314] (AR v2) Copy OK

Track 11

Filename C:\The Best Christmas ...Ever! (EMI Music Poland, 3784682)\31 - Anna Maria Jopek, Jeremi Przybora - Na Calej Polaci Snieg.wav

Pre-gap length 0:00:02.00

Peak level 97.7 % Extraction speed 1.8 X Track quality 100.0 % Test CRC 52189530 Copy CRC 52189530 Accurately ripped (confidence 5) [C5C7CBBA] (AR v2) Copy OK

Track 12

Filename C:\The Best Christmas ...Ever! (EMI Music Poland, 3784682)\32 - Grzegorz Turnau - Platki, Oplatki.wav

Pre-gap length 0:00:02.00

Peak level 97.7 % Extraction speed 1.7 X Track quality 99.9 % Test CRC CB60072E Copy CRC CB60072E Accurately ripped (confidence 5) [E051EEE3] (AR v2) Copy OK

Track 13

Filename C:\The Best Christmas ...Ever! (EMI Music Poland, 3784682)\33 - Edyta Gorniak, Krzysztof Antkowiak - Pada Snieg.wav

Pre-gap length 0:00:01.98

Peak level 97.7 % Extraction speed 2.1 X Track quality 100.0 % Test CRC 9529C060 Copy CRC 9529C060 Accurately ripped (confidence 5) [C00B34F2] (AR v2) Copy OK

Track 14

Filename C:\The Best Christmas ...Ever! (EMI Music Poland, 3784682)\34 - Norbi - Choinka Norbiego.wav

Pre-gap length 0:00:02.00

Peak level 100.0 % Extraction speed 2.2 X Track quality 100.0 % Test CRC 803B9819 Copy CRC 803B9819 Accurately ripped (confidence 5) [6263C402] (AR v2) Copy OK

Track 15

Filename C:\The Best Christmas ...Ever! (EMI Music Poland, 3784682)\35 - Ha-dwa-o! - Magia Swiat.wav

Pre-gap length 0:00:02.00

Peak level 100.0 % Extraction speed 2.0 X Track quality 99.9 % Test CRC 7E2BE1DF Copy CRC 7E2BE1DF Accurately ripped (confidence 5) [3066582A] (AR v2) Copy OK

Track 16

Filename C:\The Best Christmas ...Ever! (EMI Music Poland, 3784682)\36 - Roaan - Ten Zimowy Czas.wav

Pre-gap length 0:00:02.00

Peak level 99.6 % Extraction speed 2.3 X Track quality 100.0 % Test CRC 3DBD8B07 Copy CRC 3DBD8B07 Accurately ripped (confidence 5) [3D7DDB2C] (AR v2) Copy OK

Track 17

Filename C:\The Best Christmas ...Ever! (EMI Music Poland, 3784682)\37 - Zbigniew Wodecki, Cezary Klimczak - Magia Swiat.wav

Pre-gap length 0:00:02.00

Peak level 97.7 % Extraction speed 2.3 X Track quality 100.0 % Test CRC 377D2F5F Copy CRC 377D2F5F Accurately ripped (confidence 5) [B062AA44] (AR v2) Copy OK

All tracks accurately ripped

No errors occurred

End of status report

==== Log checksum F21186755A3570C541710ABB05625B405BA00D2172A656C79972C786E7095941 ====
Exact Audio Copy V1.0 beta 3 from 29. August 2011

EAC extraction logfile from 21. December 2013, 20:33

Various / The Best Christmas ...Ever!

Used drive : MATSHITADVD-RAM UJ8B0 Adapter: 0 ID: 0

Read mode : SecureUtilize accurate stream : YesDefeat audio cache : YesMake use of C2 pointers : No

Read offset correction : 102Overread into Lead-In and Lead-Out : NoFill up missing offset samples with silence : YesDelete leading and trailing silent blocks : NoNull samples used in CRC calculations : YesUsed interface : Native Win32 interface for Win NT & 2000Gap handling : Appended to previous track

Used output format : User Defined EncoderSelected bitrate : 1024 kBit/sQuality : HighAdd ID3 tag : NoCommand line compressor : V:\Program Files\EAC 1.0 beta 3\App\EAC\FLAC\flac.exeAdditional command line options : -8 -V -T "ARTIST=%artist%" -T "TITLE=%title%" -T "ALBUM=%albumtitle%" -T "DATE=%year%" -T "TRACKNUMBER=%tracknr%" -T "GENRE=%genre%" -T "PERFORMER=%albuminterpret%" -T "COMPOSER=%composer%" %haslyrics%--tag-from-file=LYRICS="%lyricsfile%"%haslyrics% -T "ALBUMARTIST=%albumartist%" -T "DISCNUMBER=%cdnumber%" -T "TOTALDISCS=%totalcds%" -T "TOTALTRACKS=%numtracks%" -T "COMMENT=%comment%" %source% -o %dest%

TOC of the extracted CD

Track | Start | Length | Start sector | End sector --------------------------------------------------------- 1 | 0:00.00 | 2:08.32 | 0 | 9631 2 | 2:08.32 | 1:56.21 | 9632 | 18352 3 | 4:04.53 | 2:09.60 | 18353 | 28087 4 | 6:14.38 | 2:42.07 | 28088 | 40244 5 | 8:56.45 | 2:20.20 | 40245 | 50764 6 | 11:16.65 | 3:34.08 | 50765 | 66822 7 | 14:50.73 | 1:59.56 | 66823 | 75803 8 | 16:50.54 | 2:36.68 | 75804 | 87571 9 | 19:27.47 | 1:57.34 | 87572 | 96380 10 | 21:25.06 | 3:39.33 | 96381 | 112838 11 | 25:04.39 | 1:26.74 | 112839 | 119362 12 | 26:31.38 | 1:56.67 | 119363 | 128129 13 | 28:28.30 | 2:24.69 | 128130 | 138998 14 | 30:53.24 | 3:20.00 | 138999 | 153998 15 | 34:13.24 | 2:38.65 | 153999 | 165913 16 | 36:52.14 | 3:34.08 | 165914 | 181971 17 | 40:26.22 | 4:22.16 | 181972 | 201637 18 | 44:48.38 | 2:44.60 | 201638 | 213997 19 | 47:33.23 | 1:47.68 | 213998 | 222090 20 | 49:21.16 | 2:11.62 | 222091 | 231977 21 | 51:33.03 | 3:33.06 | 231978 | 247958 22 | 55:06.09 | 3:53.40 | 247959 | 265473 23 | 58:59.49 | 3:11.01 | 265474 | 279799

Track 1

Filename C:\The Best Christmas ...Ever! (EMI Music Poland, 3784682)\38 - Andy Williams - Sleigh Ride.wav

Pre-gap length 0:00:02.00

Peak level 97.7 % Extraction speed 1.0 X Track quality 100.0 % Test CRC BE0F45CB Copy CRC BE0F45CB Accurately ripped (confidence 9) [E48E8544] (AR v2) Copy OK

Track 2

Filename C:\The Best Christmas ...Ever! (EMI Music Poland, 3784682)\39 - Dean Martin - Let It Snow! Let It Snow! Let It Snow!.wav

Pre-gap length 0:00:02.00

Peak level 97.7 % Extraction speed 1.0 X Track quality 100.0 % Test CRC CEC992F4 Copy CRC CEC992F4 Accurately ripped (confidence 9) [8317F823] (AR v2) Copy OK

Track 3

Filename C:\The Best Christmas ...Ever! (EMI Music Poland, 3784682)\40 - Les Baxter - Santa Claus Party.wav

Pre-gap length 0:00:02.00

Peak level 97.7 % Extraction speed 0.9 X Track quality 99.9 % Test CRC A1D33D2E Copy CRC A1D33D2E Accurately ripped (confidence 9) [A29DE203] (AR v2) Copy OK

Track 4

Filename C:\The Best Christmas ...Ever! (EMI Music Poland, 3784682)\41 - Kay Starr - Everybodys Waitin For The Man With The Bag.wav

Pre-gap length 0:00:02.00

Peak level 93.3 % Extraction speed 1.2 X Track quality 100.0 % Test CRC 90EFEBD6 Copy CRC 90EFEBD6 Accurately ripped (confidence 9) [D573E834] (AR v2) Copy OK

Track 5

Filename C:\The Best Christmas ...Ever! (EMI Music Poland, 3784682)\42 - The Beach Boys - Santa Claus Is Comin To Town.wav

Pre-gap length 0:00:02.00

Peak level 97.7 % Extraction speed 1.2 X Track quality 100.0 % Test CRC 118A2428 Copy CRC 118A2428 Accurately ripped (confidence 9) [23AD360B] (AR v2) Copy OK

Track 6

Filename C:\The Best Christmas ...Ever! (EMI Music Poland, 3784682)\43 - Mel & Kim - Rockin'' Around The Christmas Tree.wav

Pre-gap length 0:00:02.00

Peak level 98.8 % Extraction speed 1.2 X Track quality 99.9 % Test CRC 5080E195 Copy CRC 5080E195 Accurately ripped (confidence 9) [F6B7FEA5] (AR v2) Copy OK

Track 7

Filename C:\The Best Christmas ...Ever! (EMI Music Poland, 3784682)\44 - Ray Anthony and His Bookends - Christmas Kisses.wav

Pre-gap length 0:00:02.00

Peak level 97.7 % Extraction speed 1.3 X Track quality 100.0 % Test CRC 1CD89465 Copy CRC 1CD89465 Accurately ripped (confidence 9) [57C33900] (AR v2) Copy OK

Track 8

Filename C:\The Best Christmas ...Ever! (EMI Music Poland, 3784682)\45 - Bing Crosby - Jingle Bells.wav

Pre-gap length 0:00:02.00

Peak level 100.0 % Extraction speed 1.5 X Track quality 100.0 % Test CRC 4F0057F5 Copy CRC 4F0057F5 Accurately ripped (confidence 9) [CF6353DF] (AR v2) Copy OK

Track 9

Filename C:\The Best Christmas ...Ever! (EMI Music Poland, 3784682)\46 - Diana Decker - I''m a Little Christmas Cracker.wav

Pre-gap length 0:00:02.00

Peak level 97.0 % Extraction speed 1.4 X Track quality 100.0 % Test CRC F482B86F Copy CRC F482B86F Accurately ripped (confidence 9) [177C3D78] (AR v2) Copy OK

Track 10

Filename C:\The Best Christmas ...Ever! (EMI Music Poland, 3784682)\47 - Lou Rawls - Have Yourself a very Merry Christmas.wav

Pre-gap length 0:00:02.00

Peak level 97.7 % Extraction speed 1.5 X Track quality 99.9 % Test CRC 29BD4675 Copy CRC 29BD4675 Accurately ripped (confidence 9) [472E24E3] (AR v2) Copy OK

Track 11

Filename C:\The Best Christmas ...Ever! (EMI Music Poland, 3784682)\48 - Ella Fitzgerald - God Rest Ye Merry Gentlemen.wav

Pre-gap length 0:00:01.98

Peak level 97.7 % Extraction speed 1.0 X Track quality 99.8 % Test CRC 8B4B417F Copy CRC 8B4B417F Accurately ripped (confidence 9) [F1248FFC] (AR v2) Copy OK

Track 12

Filename C:\The Best Christmas ...Ever! (EMI Music Poland, 3784682)\49 - Julie London - Warm December.wav

Pre-gap length 0:00:02.00

Peak level 97.7 % Extraction speed 1.6 X Track quality 100.0 % Test CRC 016BAA10 Copy CRC 016BAA10 Accurately ripped (confidence 9) [5711A86C] (AR v2) Copy OK

Track 13

Filename C:\The Best Christmas ...Ever! (EMI Music Poland, 3784682)\50 - Nancy Wilson - What Are You Doing New Year''s Eve.wav

Pre-gap length 0:00:02.00

Peak level 97.7 % Extraction speed 1.7 X Track quality 100.0 % Test CRC 47F9B72E Copy CRC 47F9B72E Accurately ripped (confidence 9) [EB4C49D4] (AR v2) Copy OK

Track 14

Filename C:\The Best Christmas ...Ever! (EMI Music Poland, 3784682)\51 - Matt Monro - Mary''s Boy Child.wav

Pre-gap length 0:00:02.00

Peak level 97.7 % Extraction speed 1.8 X Track quality 100.0 % Test CRC FBF33D3A Copy CRC FBF33D3A Accurately ripped (confidence 9) [AB4A0B38] (AR v2) Copy OK

Track 15

Filename C:\The Best Christmas ...Ever! (EMI Music Poland, 3784682)\52 - Louis Armstrong - White Christmas.wav

Pre-gap length 0:00:02.00

Peak level 100.0 % Extraction speed 1.8 X Track quality 100.0 % Test CRC 475612ED Copy CRC 475612ED Accurately ripped (confidence 9) [899D459A] (AR v2) Copy OK

Track 16

Filename C:\The Best Christmas ...Ever! (EMI Music Poland, 3784682)\53 - Mud - Lonely This Christmas.wav

Pre-gap length 0:00:02.00

Peak level 97.7 % Extraction speed 1.7 X Track quality 99.9 % Test CRC 80408F69 Copy CRC 80408F69 Accurately ripped (confidence 9) [E08A29C7] (AR v2) Copy OK

Track 17

Filename C:\The Best Christmas ...Ever! (EMI Music Poland, 3784682)\54 - The Scaffold - Lily The Pink.wav

Pre-gap length 0:00:02.00

Peak level 96.9 % Extraction speed 2.1 X Track quality 100.0 % Test CRC 1221B9A5 Copy CRC 1221B9A5 Accurately ripped (confidence 9) [350D3EF1] (AR v2) Copy OK

Track 18

Filename C:\The Best Christmas ...Ever! (EMI Music Poland, 3784682)\55 - Glen Campbell - Ill Be Home for Christmas.wav

Pre-gap length 0:00:02.00

Peak level 97.7 % Extraction speed 2.0 X Track quality 100.0 % Test CRC FCDC4BD2 Copy CRC FCDC4BD2 Accurately ripped (confidence 9) [F647F909] (AR v2) Copy OK

Track 19

Filename C:\The Best Christmas ...Ever! (EMI Music Poland, 3784682)\56 - Adam Faith - Lonely Pup (in a Christmas Shop).wav

Pre-gap length 0:00:02.00

Peak level 97.7 % Extraction speed 1.5 X Track quality 99.9 % Test CRC 258D6914 Copy CRC 258D6914 Accurately ripped (confidence 9) [9A3187F7] (AR v2) Copy OK

Track 20

Filename C:\The Best Christmas ...Ever! (EMI Music Poland, 3784682)\57 - Alma Cogan - Never do a Tango with an Eskimo.wav

Pre-gap length 0:00:02.00

Peak level 97.7 % Extraction speed 1.6 X Track quality 99.9 % Test CRC 795F5DD1 Copy CRC 795F5DD1 Accurately ripped (confidence 9) [8B42FA78] (AR v2) Copy OK

Track 21

Filename C:\The Best Christmas ...Ever! (EMI Music Poland, 3784682)\58 - Gracie Fields - Little Donkey.wav

Pre-gap length 0:00:02.00

Peak level 97.7 % Extraction speed 2.2 X Track quality 100.0 % Test CRC 3DF8FEAB Copy CRC 3DF8FEAB Accurately ripped (confidence 9) [121B6F11] (AR v2) Copy OK

Track 22

Filename C:\The Best Christmas ...Ever! (EMI Music Poland, 3784682)\59 - The Spinners - The Twelve Days Of Christmas.wav

Pre-gap length 0:00:02.00

Peak level 97.7 % Extraction speed 2.3 X Track quality 100.0 % Test CRC 3FF1D7A2 Copy CRC 3FF1D7A2 Accurately ripped (confidence 9) [26808EDC] (AR v2) Copy OK

Track 23

Filename C:\The Best Christmas ...Ever! (EMI Music Poland, 3784682)\60 - Al Martino - Silver Bells.wav

Pre-gap length 0:00:02.00

Peak level 90.4 % Extraction speed 2.3 X Track quality 100.0 % Test CRC A7C87749 Copy CRC A7C87749 Accurately ripped (confidence 9) [68F103E5] (AR v2) Copy OK

All tracks accurately ripped

No errors occurred

End of status report

==== Log checksum 5FBB27B312FE362C0A35531BD8F5D0AABB96FB84FAC8D0A5FD2E55EA03B81906 ====
Exact Audio Copy V1.0 beta 3 from 29. August 2011

EAC extraction logfile from 21. December 2013, 22:11

Various / The Best Christmas ...Ever!

Used drive : MATSHITADVD-RAM UJ8B0 Adapter: 0 ID: 0

Read mode : SecureUtilize accurate stream : YesDefeat audio cache : YesMake use of C2 pointers : No

Read offset correction : 102Overread into Lead-In and Lead-Out : NoFill up missing offset samples with silence : YesDelete leading and trailing silent blocks : NoNull samples used in CRC calculations : YesUsed interface : Native Win32 interface for Win NT & 2000Gap handling : Appended to previous track

Used output format : User Defined EncoderSelected bitrate : 1024 kBit/sQuality : HighAdd ID3 tag : NoCommand line compressor : V:\Program Files\EAC 1.0 beta 3\App\EAC\FLAC\flac.exeAdditional command line options : -8 -V -T "ARTIST=%artist%" -T "TITLE=%title%" -T "ALBUM=%albumtitle%" -T "DATE=%year%" -T "TRACKNUMBER=%tracknr%" -T "GENRE=%genre%" -T "PERFORMER=%albuminterpret%" -T "COMPOSER=%composer%" %haslyrics%--tag-from-file=LYRICS="%lyricsfile%"%haslyrics% -T "ALBUMARTIST=%albumartist%" -T "DISCNUMBER=%cdnumber%" -T "TOTALDISCS=%totalcds%" -T "TOTALTRACKS=%numtracks%" -T "COMMENT=%comment%" %source% -o %dest%

TOC of the extracted CD

Track | Start | Length | Start sector | End sector --------------------------------------------------------- 1 | 0:00.00 | 3:31.64 | 0 | 15888 2 | 3:31.64 | 3:15.73 | 15889 | 30586 3 | 6:47.62 | 2:54.32 | 30587 | 43668 4 | 9:42.19 | 2:35.39 | 43669 | 55332 5 | 12:17.58 | 1:29.13 | 55333 | 62020 6 | 13:46.71 | 4:05.19 | 62021 | 80414 7 | 17:52.15 | 2:53.35 | 80415 | 93424 8 | 20:45.50 | 0:54.36 | 93425 | 97510 9 | 21:40.11 | 2:52.51 | 97511 | 110461 10 | 24:32.62 | 4:39.10 | 110462 | 131396 11 | 29:11.72 | 3:32.23 | 131397 | 147319 12 | 32:44.20 | 5:20.70 | 147320 | 171389 13 | 38:05.15 | 2:04.25 | 171390 | 180714 14 | 40:09.40 | 3:54.37 | 180715 | 198301 15 | 44:04.02 | 2:55.34 | 198302 | 211460 16 | 46:59.36 | 2:07.66 | 211461 | 221051 17 | 49:07.27 | 4:24.64 | 221052 | 240915 18 | 53:32.16 | 2:51.62 | 240916 | 253802

Track 1

Filename C:\The Best Christmas ...Ever! (EMI Music Poland, 3784682)\61 - Mazowsze - Wsrod nocnej ciszy.wav

Pre-gap length 0:00:02.00

Peak level 97.7 % Extraction speed 1.1 X Track quality 100.0 % Test CRC 1AE2FC9C Copy CRC 1AE2FC9C Accurately ripped (confidence 6) [7749777F] (AR v2) Copy OK

Track 2

Filename C:\The Best Christmas ...Ever! (EMI Music Poland, 3784682)\62 - Anna Maria Jopek - Gdy sie Chrystus rodzi.wav

Pre-gap length 0:00:02.00

Peak level 98.8 % Extraction speed 1.2 X Track quality 100.0 % Test CRC FDF98746 Copy CRC FDF98746 Accurately ripped (confidence 6) [397B871B] (AR v2) Copy OK

Track 3

Filename C:\The Best Christmas ...Ever! (EMI Music Poland, 3784682)\63 - Krzysztof Krawczyk - Przybiezeli do Betlejem.wav

Pre-gap length 0:00:02.00

Peak level 97.7 % Extraction speed 1.3 X Track quality 100.0 % Test CRC 7271DD2B Copy CRC 7271DD2B Accurately ripped (confidence 6) [EA070D37] (AR v2) Copy OK

Track 4

Filename C:\The Best Christmas ...Ever! (EMI Music Poland, 3784682)\64 - Hanna Banaszak - W zlobie lezy.wav

Pre-gap length 0:00:02.00

Peak level 97.7 % Extraction speed 1.3 X Track quality 100.0 % Test CRC 8B3A8C30 Copy CRC 8B3A8C30 Accurately ripped (confidence 6) [55CBAB2C] (AR v2) Copy OK

Track 5

Filename C:\The Best Christmas ...Ever! (EMI Music Poland, 3784682)\65 - Ryszard Rynkowski - Hej, w dzien narodzenia.wav

Pre-gap length 0:00:01.98

Peak level 93.3 % Extraction speed 1.2 X Track quality 100.0 % Test CRC 16F8DA7F Copy CRC 16F8DA7F Accurately ripped (confidence 6) [BAB1D2F2] (AR v2) Copy OK

Track 6

Filename C:\The Best Christmas ...Ever! (EMI Music Poland, 3784682)\66 - Maciej Balcar, Natalia Kukulska, Kasia Stankiewicz, Andrzej Piaseczny - Dzisiaj w Betlejem.wav

Pre-gap length 0:00:02.00

Peak level 97.7 % Extraction speed 1.5 X Track quality 100.0 % Test CRC 15DCA8EC Copy CRC 15DCA8EC Accurately ripped (confidence 6) [10C36857] (AR v2) Copy OK

Track 7

Filename C:\The Best Christmas ...Ever! (EMI Music Poland, 3784682)\67 - Katarzyna Groniec - Jezus malusieki.wav

Pre-gap length 0:00:02.00

Peak level 97.7 % Extraction speed 1.5 X Track quality 100.0 % Test CRC B1EAD67D Copy CRC B1EAD67D Accurately ripped (confidence 6) [753339B0] (AR v2) Copy OK

Track 8

Filename C:\The Best Christmas ...Ever! (EMI Music Poland, 3784682)\68 - Stanislaw Soyka - A wczora z wieczora.wav

Pre-gap length 0:00:01.98

Peak level 97.7 % Extraction speed 1.1 X Track quality 100.0 % Test CRC D7C230CE Copy CRC D7C230CE Accurately ripped (confidence 6) [7D8115E3] (AR v2) Copy OK

Track 9

Filename C:\The Best Christmas ...Ever! (EMI Music Poland, 3784682)\69 - Halina Frackowiak Alicja Majewska - Lulajze Jezuniu.wav

Pre-gap length 0:00:02.00

Peak level 97.7 % Extraction speed 1.6 X Track quality 100.0 % Test CRC FA167740 Copy CRC FA167740 Accurately ripped (confidence 6) [FC91D80A] (AR v2) Copy OK

Track 10

Filename C:\The Best Christmas ...Ever! (EMI Music Poland, 3784682)\70 - Ryszard Rynkowski - Cicha Noc.wav

Pre-gap length 0:00:01.98

Peak level 100.0 % Extraction speed 1.8 X Track quality 100.0 % Test CRC FF8D9DAC Copy CRC FF8D9DAC Accurately ripped (confidence 6) [B458C4DF] (AR v2) Copy OK

Track 11

Filename C:\The Best Christmas ...Ever! (EMI Music Poland, 3784682)\71 - Jerzy Polomski - Medrcy swiata.wav

Pre-gap length 0:00:02.00

Peak level 97.7 % Extraction speed 1.8 X Track quality 100.0 % Test CRC 39CD5976 Copy CRC 39CD5976 Accurately ripped (confidence 6) [02B6F0AA] (AR v2) Copy OK

Track 12

Filename C:\The Best Christmas ...Ever! (EMI Music Poland, 3784682)\72 - Natalia Kukulska - Gdy sliczna Panna.wav

Pre-gap length 0:00:02.00

Peak level 97.7 % Extraction speed 2.0 X Track quality 100.0 % Test CRC BE5009D8 Copy CRC BE5009D8 Accurately ripped (confidence 6) [9C919A44] (AR v2) Copy OK

Track 13

Filename C:\The Best Christmas ...Ever! (EMI Music Poland, 3784682)\73 - Michal Bajor - Pasterze mili.wav

Pre-gap length 0:00:02.00

Peak level 97.7 % Extraction speed 1.8 X Track quality 100.0 % Test CRC D6F96746 Copy CRC D6F96746 Accurately ripped (confidence 6) [99359D89] (AR v2) Copy OK

Track 14

Filename C:\The Best Christmas ...Ever! (EMI Music Poland, 3784682)\74 - Zbigniew Wodecki - Oj, maluski maluski.wav

Pre-gap length 0:00:02.00

Peak level 97.7 % Extraction speed 2.1 X Track quality 100.0 % Test CRC B94202C9 Copy CRC B94202C9 Accurately ripped (confidence 6) [3E64AC28] (AR v2) Copy OK

Track 15

Filename C:\The Best Christmas ...Ever! (EMI Music Poland, 3784682)\75 - Golec Orkiestra - Pojdzmy wszyscy do stajenki.wav

Pre-gap length 0:00:02.00

Peak level 96.6 % Extraction speed 2.0 X Track quality 100.0 % Test CRC DA722539 Copy CRC DA722539 Accurately ripped (confidence 6) [C6276AB2] (AR v2) Copy OK

Track 16

Filename C:\The Best Christmas ...Ever! (EMI Music Poland, 3784682)\76 - Irena Santor - Z narodzenia Pana.wav

Pre-gap length 0:00:02.00

Peak level 97.7 % Extraction speed 1.9 X Track quality 100.0 % Test CRC 324245DE Copy CRC 324245DE Accurately ripped (confidence 6) [401FE4D4] (AR v2) Copy OK

Track 17

Filename C:\The Best Christmas ...Ever! (EMI Music Poland, 3784682)\77 - Pospieszalscy - Polnoc juz byla.wav

Pre-gap length 0:00:02.00

Peak level 97.7 % Extraction speed 2.3 X Track quality 100.0 % Test CRC A2085C4C Copy CRC A2085C4C Accurately ripped (confidence 6) [D5E7C55D] (AR v2) Copy OK

Track 18

Filename C:\The Best Christmas ...Ever! (EMI Music Poland, 3784682)\78 - Mazowsze - Bog sie rodzi.wav

Pre-gap length 0:00:00.66

Peak level 97.7 % Extraction speed 2.2 X Track quality 100.0 % Test CRC 5BC701A5 Copy CRC 5BC701A5 Accurately ripped (confidence 6) [7318B85D] (AR v2) Copy OK

All tracks accurately ripped

No errors occurred

End of status report

==== Log checksum C35749D7CDA038ABB0B86AD15B6B0CF820BAD74B1146E1FD5967076C00299114 ====
[pre]REM GENRE Pop
REM DATE 2006
REM DISCID 1911F414
REM COMMENT "ExactAudioCopy v1.0b3"
PERFORMER "Various"
TITLE "The Best Christmas ...Ever!"
FILE "01 - Queen - Thank God It''s Christmas.wav" WAVE
TRACK 01 AUDIO
TITLE "Thank God It''s Christmas"
PERFORMER "Queen"
INDEX 01 00:00:00
TRACK 02 AUDIO
TITLE "Driving Home For Christmas"
PERFORMER "Chris Rea"
INDEX 00 04:19:17
FILE "02 - Chris Rea - Driving Home For Christmas.wav" WAVE
INDEX 01 00:00:00
TRACK 03 AUDIO
TITLE "Next Year, Baby"
PERFORMER "Jamie Cullum"
INDEX 00 03:55:64
FILE "03 - Jamie Cullum - Next Year, Baby.wav" WAVE
INDEX 01 00:00:00
TRACK 04 AUDIO
TITLE "Don''t Need A Reindeer"
PERFORMER "The Moody Blues"
INDEX 00 04:43:55
FILE "04 - The Moody Blues - Don''t Need A Reindeer.wav" WAVE
INDEX 01 00:00:00
TRACK 05 AUDIO
TITLE "Wonderful Christmas Time"
PERFORMER "Paul McCartney"
INDEX 00 03:56:71
FILE "05 - Paul McCartney - Wonderful Christmas Time.wav" WAVE
INDEX 01 00:00:00
TRACK 06 AUDIO
TITLE "O Come, All Ye Faithful"
PERFORMER "Stacie Orrico"
INDEX 00 03:44:19
FILE "06 - Stacie Orrico - O Come, All Ye Faithful.wav" WAVE
INDEX 01 00:00:00
TRACK 07 AUDIO
TITLE "Christmas Must Be Tonight"
PERFORMER "The Band"
INDEX 00 03:57:37
FILE "07 - The Band - Christmas Must Be Tonight.wav" WAVE
INDEX 01 00:00:00
TRACK 08 AUDIO
TITLE "I Wish It Could Be Christmas Everyday"
PERFORMER "Wizzard"
INDEX 00 03:35:70
FILE "08 - Wizzard - I Wish It Could Be Christmas Everyday.wav" WAVE
INDEX 01 00:00:00
TRACK 09 AUDIO
TITLE "Frosty The Snowman"
PERFORMER "The Jackson 5"
INDEX 00 04:38:03
FILE "09 - The Jackson 5 - Frosty The Snowman.wav" WAVE
INDEX 01 00:00:00
TRACK 10 AUDIO
TITLE "Feliz Navidad"
PERFORMER "Jose Feliciano"
INDEX 00 02:37:01
FILE "10 - Jose Feliciano - Feliz Navidad.wav" WAVE
INDEX 01 00:00:00
TRACK 11 AUDIO
TITLE "Mistletoe And Wine"
PERFORMER "Cliff Richard"
INDEX 00 03:00:57
FILE "11 - Cliff Richard - Mistletoe And Wine.wav" WAVE
INDEX 01 00:00:00
TRACK 12 AUDIO
TITLE "Merry Xmas Everybody"
PERFORMER "Slade"
INDEX 00 03:51:37
FILE "12 - Slade - Merry Xmas Everybody.wav" WAVE
INDEX 01 00:00:00
TRACK 13 AUDIO
TITLE "Ring Out Solstice Bells"
PERFORMER "Jethro Tull"
INDEX 00 03:41:51
FILE "13 - Jethro Tull - Ring Out Solstice Bells.wav" WAVE
INDEX 01 00:00:00
TRACK 14 AUDIO
TITLE "Last Christmas"
PERFORMER "Billie"
INDEX 00 03:33:36
FILE "14 - Billie - Last Christmas.wav" WAVE
INDEX 01 00:00:00
TRACK 15 AUDIO
TITLE "Do They Know It''s Christmas?"
PERFORMER "Band Aid"
INDEX 00 04:59:50
FILE "15 - Band Aid - Do They Know It''s Christmas.wav" WAVE
INDEX 01 00:00:00
TRACK 16 AUDIO
TITLE "Soulful Christmas"
PERFORMER "Faith Evans"
INDEX 00 03:40:58
FILE "16 - Faith Evans - Soulful Christmas.wav" WAVE
INDEX 01 00:00:00
TRACK 17 AUDIO
TITLE "I Can''t Wait For Christmas"
PERFORMER "Mindi Abair"
INDEX 00 03:05:21
FILE "17 - Mindi Abair - I Can''t Wait For Christmas.wav" WAVE
INDEX 01 00:00:00
TRACK 18 AUDIO
TITLE "December Makes Me Feel This Way"
PERFORMER "Dave Koz"
INDEX 00 03:33:25
FILE "18 - Dave Koz - December Makes Me Feel This Way.wav" WAVE
INDEX 01 00:00:00
TRACK 19 AUDIO
TITLE "What If"
PERFORMER "Kate Winslet"
INDEX 00 03:20:50
FILE "19 - Kate Winslet - What If.wav" WAVE
INDEX 01 00:00:00
TRACK 20 AUDIO
TITLE "Silent Night Holy Night"
PERFORMER "Sinead O''Connor"
INDEX 00 04:03:00
FILE "20 - Sinead O''Connor - Silent Night Holy Night.wav" WAVE
INDEX 01 00:00:00
REM GENRE Pop-FolkREM DATE 2006REM DISCID F30E3711REM COMMENT "ExactAudioCopy v1.0b3"PERFORMER "Various"TITLE "The Best Christmas ...Ever!"FILE "21 - Krzysztof Kiljanski - Od Swiat Do Swiat.wav" WAVE TRACK 01 AUDIO TITLE "Od Swiat Do Swiat" PERFORMER "Krzysztof Kiljanski" INDEX 01 00:00:00 TRACK 02 AUDIO TITLE "Dzien Jeden W Roku" PERFORMER "Czerwone Gitary" INDEX 00 03:33:14FILE "22 - Czerwone Gitary - Dzien Jeden W Roku.wav" WAVE INDEX 01 00:00:00 TRACK 03 AUDIO TITLE "Oszaleli Anieli" PERFORMER "Katarzyna Skrzynecka" INDEX 00 02:24:43FILE "23 - Katarzyna Skrzynecka - Oszaleli Anieli.wav" WAVE INDEX 01 00:00:00 TRACK 04 AUDIO TITLE "Raduj Sie Swiecie " PERFORMER "Mietek Szczesniak, Kayah" INDEX 00 03:53:17FILE "24 - Mietek Szczesniak, Kayah - Raduj Sie Swiecie.wav" WAVE INDEX 01 00:00:00 TRACK 05 AUDIO TITLE "Z Kopyta Kulig Rwie" PERFORMER "Quligowsy" INDEX 00 02:42:38FILE "25 - Quligowsy - Z Kopyta Kulig Rwie.wav" WAVE INDEX 01 00:00:00 TRACK 06 AUDIO TITLE "Mikolaj Jedzie Tu Znow" PERFORMER "Ewelina Flinta" INDEX 00 03:45:45FILE "26 - Ewelina Flinta - Mikolaj Jedzie Tu Znow.wav" WAVE INDEX 01 00:00:00 TRACK 07 AUDIO TITLE "On Christmas Day" PERFORMER "Why Not?" INDEX 00 02:57:60FILE "27 - Why Not - On Christmas Day.wav" WAVE INDEX 01 00:00:00 TRACK 08 AUDIO TITLE "Winter Song" PERFORMER "Anita Lipnicka" INDEX 00 03:55:63FILE "28 - Anita Lipnicka - Winter Song.wav" WAVE INDEX 01 00:00:00 TRACK 09 AUDIO TITLE "Swiety czas" PERFORMER "PiN" INDEX 00 02:18:27FILE "29 - PiN - Swiety czas.wav" WAVE INDEX 01 00:00:00 TRACK 10 AUDIO TITLE "Pod Niebem" PERFORMER "Raz Dwa Trzy" INDEX 00 04:04:00FILE "30 - Raz Dwa Trzy - Pod Niebem.wav" WAVE INDEX 01 00:00:00 TRACK 11 AUDIO TITLE "Na Calej Polaci Snieg" PERFORMER "Anna Maria Jopek, Jeremi Przybora" INDEX 00 05:32:53FILE "31 - Anna Maria Jopek, Jeremi Przybora - Na Calej Polaci Snieg.wav" WAVE INDEX 01 00:00:00 TRACK 12 AUDIO TITLE "Platki, Oplatki" PERFORMER "Grzegorz Turnau" INDEX 00 02:18:02FILE "32 - Grzegorz Turnau - Platki, Oplatki.wav" WAVE INDEX 01 00:00:00 TRACK 13 AUDIO TITLE "Pada Snieg" PERFORMER "Edyta Gorniak, Krzysztof Antkowiak" INDEX 00 03:12:66FILE "33 - Edyta Gorniak, Krzysztof Antkowiak - Pada Snieg.wav" WAVE INDEX 01 00:00:00 TRACK 14 AUDIO TITLE "Choinka Norbiego" PERFORMER "Norbi" INDEX 00 04:15:33FILE "34 - Norbi - Choinka Norbiego.wav" WAVE INDEX 01 00:00:00 TRACK 15 AUDIO TITLE "Magia Swiat" PERFORMER "Ha-dwa-o!" INDEX 00 03:52:57FILE "35 - Ha-dwa-o! - Magia Swiat.wav" WAVE INDEX 01 00:00:00 TRACK 16 AUDIO TITLE "Ten Zimowy Czas" PERFORMER "Roaan" INDEX 00 04:01:24FILE "36 - Roaan - Ten Zimowy Czas.wav" WAVE INDEX 01 00:00:00 TRACK 17 AUDIO TITLE "Magia Swiat" PERFORMER "Zbigniew Wodecki, Cezary Klimczak" INDEX 00 03:38:67FILE "37 - Zbigniew Wodecki, Cezary Klimczak - Magia Swiat.wav" WAVE INDEX 01 00:00:00
REM GENRE Pop-FolkREM DATE 2006REM DISCID 460E9217REM COMMENT "ExactAudioCopy v1.0b3"PERFORMER "Various"TITLE "The Best Christmas ...Ever!"FILE "38 - Andy Williams - Sleigh Ride.wav" WAVE TRACK 01 AUDIO TITLE "Sleigh Ride" PERFORMER "Andy Williams" INDEX 01 00:00:00 TRACK 02 AUDIO TITLE "Let It Snow! Let It Snow! Let It Snow!" PERFORMER "Dean Martin" INDEX 00 02:06:32FILE "39 - Dean Martin - Let It Snow! Let It Snow! Let It Snow!.wav" WAVE INDEX 01 00:00:00 TRACK 03 AUDIO TITLE "Santa Claus Party" PERFORMER "Les Baxter" INDEX 00 01:54:21FILE "40 - Les Baxter - Santa Claus Party.wav" WAVE INDEX 01 00:00:00 TRACK 04 AUDIO TITLE "Everybodys Waitin For The Man With The Bag" PERFORMER "Kay Starr" INDEX 00 02:07:60FILE "41 - Kay Starr - Everybodys Waitin For The Man With The Bag.wav" WAVE INDEX 01 00:00:00 TRACK 05 AUDIO TITLE "Santa Claus Is Comin To Town" PERFORMER "The Beach Boys" INDEX 00 02:40:07FILE "42 - The Beach Boys - Santa Claus Is Comin To Town.wav" WAVE INDEX 01 00:00:00 TRACK 06 AUDIO TITLE "Rockin'' Around The Christmas Tree" PERFORMER "Mel & Kim" INDEX 00 02:18:20FILE "43 - Mel & Kim - Rockin'' Around The Christmas Tree.wav" WAVE INDEX 01 00:00:00 TRACK 07 AUDIO TITLE "Christmas Kisses" PERFORMER "Ray Anthony and His Bookends" INDEX 00 03:32:08FILE "44 - Ray Anthony and His Bookends - Christmas Kisses.wav" WAVE INDEX 01 00:00:00 TRACK 08 AUDIO TITLE "Jingle Bells" PERFORMER "Bing Crosby" INDEX 00 01:57:56FILE "45 - Bing Crosby - Jingle Bells.wav" WAVE INDEX 01 00:00:00 TRACK 09 AUDIO TITLE "I''m a Little Christmas Cracker" PERFORMER "Diana Decker" INDEX 00 02:34:68FILE "46 - Diana Decker - I''m a Little Christmas Cracker.wav" WAVE INDEX 01 00:00:00 TRACK 10 AUDIO TITLE "Have Yourself a very Merry Christmas" PERFORMER "Lou Rawls" INDEX 00 01:55:34FILE "47 - Lou Rawls - Have Yourself a very Merry Christmas.wav" WAVE INDEX 01 00:00:00 TRACK 11 AUDIO TITLE "God Rest Ye Merry Gentlemen" PERFORMER "Ella Fitzgerald" INDEX 00 03:37:34FILE "48 - Ella Fitzgerald - God Rest Ye Merry Gentlemen.wav" WAVE INDEX 01 00:00:00 TRACK 12 AUDIO TITLE "Warm December" PERFORMER "Julie London" INDEX 00 01:24:74FILE "49 - Julie London - Warm December.wav" WAVE INDEX 01 00:00:00 TRACK 13 AUDIO TITLE "What Are You Doing New Year''s Eve" PERFORMER "Nancy Wilson" INDEX 00 01:54:67FILE "50 - Nancy Wilson - What Are You Doing New Year''s Eve.wav" WAVE INDEX 01 00:00:00 TRACK 14 AUDIO TITLE "Mary''s Boy Child" PERFORMER "Matt Monro" INDEX 00 02:22:69FILE "51 - Matt Monro - Mary''s Boy Child.wav" WAVE INDEX 01 00:00:00 TRACK 15 AUDIO TITLE "White Christmas" PERFORMER "Louis Armstrong" INDEX 00 03:18:00FILE "52 - Louis Armstrong - White Christmas.wav" WAVE INDEX 01 00:00:00 TRACK 16 AUDIO TITLE "Lonely This Christmas" PERFORMER "Mud" INDEX 00 02:36:65FILE "53 - Mud - Lonely This Christmas.wav" WAVE INDEX 01 00:00:00 TRACK 17 AUDIO TITLE "Lily The Pink" PERFORMER "The Scaffold" INDEX 00 03:32:08FILE "54 - The Scaffold - Lily The Pink.wav" WAVE INDEX 01 00:00:00 TRACK 18 AUDIO TITLE "Ill Be Home for Christmas" PERFORMER "Glen Campbell" INDEX 00 04:20:16FILE "55 - Glen Campbell - Ill Be Home for Christmas.wav" WAVE INDEX 01 00:00:00 TRACK 19 AUDIO TITLE "Lonely Pup (in a Christmas Shop)" PERFORMER "Adam Faith" INDEX 00 02:42:60FILE "56 - Adam Faith - Lonely Pup (in a Christmas Shop).wav" WAVE INDEX 01 00:00:00 TRACK 20 AUDIO TITLE "Never do a Tango with an Eskimo" PERFORMER "Alma Cogan" INDEX 00 01:45:68FILE "57 - Alma Cogan - Never do a Tango with an Eskimo.wav" WAVE INDEX 01 00:00:00 TRACK 21 AUDIO TITLE "Little Donkey" PERFORMER "Gracie Fields" INDEX 00 02:09:62FILE "58 - Gracie Fields - Little Donkey.wav" WAVE INDEX 01 00:00:00 TRACK 22 AUDIO TITLE "The Twelve Days Of Christmas" PERFORMER "The Spinners" INDEX 00 03:31:06FILE "59 - The Spinners - The Twelve Days Of Christmas.wav" WAVE INDEX 01 00:00:00 TRACK 23 AUDIO TITLE "Silver Bells" PERFORMER "Al Martino" INDEX 00 03:51:40FILE "60 - Al Martino - Silver Bells.wav" WAVE INDEX 01 00:00:00
REM GENRE Pop-FolkREM DATE 2006REM DISCID FD0D3812REM COMMENT "ExactAudioCopy v1.0b3"PERFORMER "Various"TITLE "The Best Christmas ...Ever!"FILE "61 - Mazowsze - Wsrod nocnej ciszy.wav" WAVE TRACK 01 AUDIO TITLE "Wsrod nocnej ciszy" PERFORMER "Mazowsze" INDEX 01 00:00:00 TRACK 02 AUDIO TITLE "Gdy sie Chrystus rodzi" PERFORMER "Anna Maria Jopek" INDEX 00 03:29:64FILE "62 - Anna Maria Jopek - Gdy sie Chrystus rodzi.wav" WAVE INDEX 01 00:00:00 TRACK 03 AUDIO TITLE "Przybiezeli do Betlejem" PERFORMER "Krzysztof Krawczyk" INDEX 00 03:13:73FILE "63 - Krzysztof Krawczyk - Przybiezeli do Betlejem.wav" WAVE INDEX 01 00:00:00 TRACK 04 AUDIO TITLE "W zlobie lezy" PERFORMER "Hanna Banaszak" INDEX 00 02:52:32FILE "64 - Hanna Banaszak - W zlobie lezy.wav" WAVE INDEX 01 00:00:00 TRACK 05 AUDIO TITLE "Hej, w dzien narodzenia" PERFORMER "Ryszard Rynkowski" INDEX 00 02:33:40FILE "65 - Ryszard Rynkowski - Hej, w dzien narodzenia.wav" WAVE INDEX 01 00:00:00 TRACK 06 AUDIO TITLE "Dzisiaj w Betlejem" PERFORMER "Maciej Balcar, Natalia Kukulska, Kasia Stankiewicz, Andrzej Piaseczny" INDEX 00 01:27:13FILE "66 - Maciej Balcar, Natalia Kukulska, Kasia Stankiewicz, Andrzej Piaseczny - Dzisiaj w Betlejem.wav" WAVE INDEX 01 00:00:00 TRACK 07 AUDIO TITLE "Jezus malusieki" PERFORMER "Katarzyna Groniec" INDEX 00 04:03:19FILE "67 - Katarzyna Groniec - Jezus malusieki.wav" WAVE INDEX 01 00:00:00 TRACK 08 AUDIO TITLE "A wczora z wieczora" PERFORMER "Stanislaw Soyka" INDEX 00 02:51:36FILE "68 - Stanislaw Soyka - A wczora z wieczora.wav" WAVE INDEX 01 00:00:00 TRACK 09 AUDIO TITLE "Lulajze Jezuniu" PERFORMER "Halina Frackowiak Alicja Majewska" INDEX 00 00:52:36FILE "69 - Halina Frackowiak Alicja Majewska - Lulajze Jezuniu.wav" WAVE INDEX 01 00:00:00 TRACK 10 AUDIO TITLE "Cicha Noc" PERFORMER "Ryszard Rynkowski" INDEX 00 02:50:52FILE "70 - Ryszard Rynkowski - Cicha Noc.wav" WAVE INDEX 01 00:00:00 TRACK 11 AUDIO TITLE "Medrcy swiata" PERFORMER "Jerzy Polomski" INDEX 00 04:37:10FILE "71 - Jerzy Polomski - Medrcy swiata.wav" WAVE INDEX 01 00:00:00 TRACK 12 AUDIO TITLE "Gdy sliczna Panna" PERFORMER "Natalia Kukulska" INDEX 00 03:30:23FILE "72 - Natalia Kukulska - Gdy sliczna Panna.wav" WAVE INDEX 01 00:00:00 TRACK 13 AUDIO TITLE "Pasterze mili" PERFORMER "Michal Bajor" INDEX 00 05:18:70FILE "73 - Michal Bajor - Pasterze mili.wav" WAVE INDEX 01 00:00:00 TRACK 14 AUDIO TITLE "Oj, maluski maluski" PERFORMER "Zbigniew Wodecki" INDEX 00 02:02:25FILE "74 - Zbigniew Wodecki - Oj, maluski maluski.wav" WAVE INDEX 01 00:00:00 TRACK 15 AUDIO TITLE "Pojdzmy wszyscy do stajenki" PERFORMER "Golec Orkiestra" INDEX 00 03:52:37FILE "75 - Golec Orkiestra - Pojdzmy wszyscy do stajenki.wav" WAVE INDEX 01 00:00:00 TRACK 16 AUDIO TITLE "Z narodzenia Pana" PERFORMER "Irena Santor" INDEX 00 02:53:34FILE "76 - Irena Santor - Z narodzenia Pana.wav" WAVE INDEX 01 00:00:00 TRACK 17 AUDIO TITLE "Polnoc juz byla" PERFORMER "Pospieszalscy" INDEX 00 02:05:66FILE "77 - Pospieszalscy - Polnoc juz byla.wav" WAVE INDEX 01 00:00:00 TRACK 18 AUDIO TITLE "Bog sie rodzi" PERFORMER "Mazowsze" INDEX 00 04:24:14FILE "78 - Mazowsze - Bog sie rodzi.wav" WAVE INDEX 01 00:00:00


Трекер:  [ 22-Дек-2013 16:12 ]

  

Скачать .torrent

Размер .torrent файла 23 KB


Размер: 1.59 GB
Хэш (hash) релиза: 723427d08d38421bac5a41944dbb0aa35e53fff3

Еще никто не оставлял запись к записи скачать торрент . Будь первым!

!Обратная связь