Скачать через торрент музыку бесплатно без регистрации torrent

Статистика раздачи
Размер:  1.03 GB   |    Зарегистрирован:  4 года 11 месяцев   |    .torrent скачан:  75 раз   |   
Раздают:  1  
   
загрузка...
 
Автор Сообщение

Galfimbul

avatar Galfimbul


Peter Jacques Band / Greatest Hits & Essential Tracks

Жанр: Disco
Носитель: CD
Страна-производитель диска: Italy
Год издания: 2009
Издатель (лейбл): One Trybal
Номер по каталогу: sccd 1196
Страна: Italy
Аудиокодек: FLAC (*.flac)
Тип рипа: image+.cue
Битрейт аудио: lossless
Продолжительность: 72:41 + 72:10
Источник (релизер): CD
Наличие сканов в содержимом раздачи: да
01 - Walking On Music
02 - Exotical L.Y.
03 - Going Dancing Down The Street
04 - Flying With The Wind
05 - Welcome Back
06 - All Right Let''s Go
07 - Mighty Fine
08 - High Time
09 - Is It It?
10 - Don''t Say You''ve Gotta Go
11 - The Louder
12 - Mexico
Exact Audio Copy V0.99 prebeta 5 from 4. May 2009

EAC extraction logfile from 29. December 2013, 5:12

Peter Jacques Band / Greatest Hits & Essential Tracks [CD 1]

Used drive : HL-DT-STDVDRAM GT50N Adapter: 0 ID: 1

Read mode : SecureUtilize accurate stream : YesDefeat audio cache : YesMake use of C2 pointers : No

Read offset correction : 103Overread into Lead-In and Lead-Out : NoFill up missing offset samples with silence : YesDelete leading and trailing silent blocks : NoNull samples used in CRC calculations : YesUsed interface : Native Win32 interface for Win NT & 2000

Used output format : User Defined EncoderSelected bitrate : 128 kBit/sQuality : HighAdd ID3 tag : NoCommand line compressor : C:\Program Files (x86)\Exact Audio Copy\Flac\flac.exeAdditional command line options : -V -8 %s

TOC of the extracted CD

Track | Start | Length | Start sector | End sector --------------------------------------------------------- 1 | 0:00.00 | 8:25.09 | 0 | 37883 2 | 8:25.09 | 5:46.25 | 37884 | 63858 3 | 14:11.34 | 5:53.57 | 63859 | 90390 4 | 20:05.16 | 8:44.03 | 90391 | 129693 5 | 28:49.19 | 6:23.46 | 129694 | 158464 6 | 35:12.65 | 6:29.08 | 158465 | 187647 7 | 41:41.73 | 5:20.37 | 187648 | 211684 8 | 47:02.35 | 5:02.00 | 211685 | 234334 9 | 52:04.35 | 5:09.01 | 234335 | 257510 10 | 57:13.36 | 4:00.25 | 257511 | 275535 11 | 61:13.61 | 6:57.53 | 275536 | 306863 12 | 68:11.39 | 4:29.32 | 306864 | 327070

Range status and errors

Selected range

Filename C:\CD RIPS\Peter Jacques Band - Greatest Hits And Essential Tracks\CD1\Peter Jacques Band - Greatest Hits & Essential Tracks [CD 1].wav

Peak level 100.0 % Range quality 100.0 % Test CRC 2F36E0C0 Copy CRC 2F36E0C0 Copy OK

No errors occurred

AccurateRip summary

Track 1 cannot be verified as accurate (confidence 1) [42FB18D9], AccurateRip returned [1B73C30E]Track 2 cannot be verified as accurate (confidence 1) [5E573668], AccurateRip returned [C0D1140D]Track 3 cannot be verified as accurate (confidence 1) [2E0FE040], AccurateRip returned [14DA5464]Track 4 cannot be verified as accurate (confidence 1) [3BE9916C], AccurateRip returned [7676DCD6]Track 5 cannot be verified as accurate (confidence 1) [00C663F7], AccurateRip returned [CF7AB626]Track 6 cannot be verified as accurate (confidence 1) [78A7F4D9], AccurateRip returned [0350259C]Track 7 cannot be verified as accurate (confidence 1) [F2206A5F], AccurateRip returned [956C9743]Track 8 cannot be verified as accurate (confidence 1) [94318BF5], AccurateRip returned [57BD297F]Track 9 cannot be verified as accurate (confidence 1) [06A70F83], AccurateRip returned [020F3B79]Track 10 cannot be verified as accurate (confidence 1) [43417BDC], AccurateRip returned [6A4D1292]Track 11 cannot be verified as accurate (confidence 1) [66CDC401], AccurateRip returned [5B4C050D]Track 12 cannot be verified as accurate (confidence 1) [77F8B580], AccurateRip returned [50350FA4]

No tracks could be verified as accurateYou may have a different pressing from the one(s) in the database

End of status report
01 - One Decade Of PJB (The Uptempo Tracks)
02 - Fire Night Dance
03 - Is It It? (Remix)
04 - This Night (Special Promo Remix)
05 - One Decade Of PJB (The Midtempo Tracks)
06 - Drives Me Crazy (Extended Version)
07 - Devil''s Run
08 - Counting On Love (One Two Three) [Extended Vrs]
09 - One Decade Of PJB (The Slow Tracks)
10 - I Was Made For Lovin'' You
11 - Shake Your Body (Down To The Ground)
Exact Audio Copy V0.99 prebeta 5 from 4. May 2009

EAC extraction logfile from 29. December 2013, 5:47

Peter Jacques Band / Greatest Hits & Essential Tracks [CD 2]

Used drive : HL-DT-STDVDRAM GT50N Adapter: 0 ID: 1

Read mode : SecureUtilize accurate stream : YesDefeat audio cache : YesMake use of C2 pointers : No

Read offset correction : 103Overread into Lead-In and Lead-Out : NoFill up missing offset samples with silence : YesDelete leading and trailing silent blocks : NoNull samples used in CRC calculations : YesUsed interface : Native Win32 interface for Win NT & 2000

Used output format : User Defined EncoderSelected bitrate : 128 kBit/sQuality : HighAdd ID3 tag : NoCommand line compressor : C:\Program Files (x86)\Exact Audio Copy\Flac\flac.exeAdditional command line options : -V -8 %s

TOC of the extracted CD

Track | Start | Length | Start sector | End sector --------------------------------------------------------- 1 | 0:00.00 | 7:03.11 | 0 | 31735 2 | 7:03.11 | 8:41.47 | 31736 | 70857 3 | 15:44.58 | 5:48.07 | 70858 | 96964 4 | 21:32.65 | 6:54.53 | 96965 | 128067 5 | 28:27.43 | 6:43.41 | 128068 | 158333 6 | 35:11.09 | 5:48.68 | 158334 | 184501 7 | 41:00.02 | 8:28.48 | 184502 | 222649 8 | 49:28.50 | 6:11.54 | 222650 | 250528 9 | 55:40.29 | 6:58.64 | 250529 | 281942 10 | 62:39.18 | 5:01.40 | 281943 | 304557 11 | 67:40.58 | 4:28.59 | 304558 | 324716

Range status and errors

Selected range

Filename C:\CD RIPS\Peter Jacques Band - Greatest Hits And Essential Tracks\CD2\Peter Jacques Band - Greatest Hits & Essential Tracks [CD 2].wav

Peak level 100.0 % Range quality 100.0 % Test CRC C4E204FB Copy CRC C4E204FB Copy OK

No errors occurred

AccurateRip summary

Track 1 cannot be verified as accurate (confidence 1) [7A17364A], AccurateRip returned [F2575915]Track 2 cannot be verified as accurate (confidence 1) [41E60BBB], AccurateRip returned [9471BAA1]Track 3 cannot be verified as accurate (confidence 1) [A80A8AA0], AccurateRip returned [A314FD1A]Track 4 not present in databaseTrack 5 cannot be verified as accurate (confidence 1) [1E0B07ED], AccurateRip returned [A0DE3354]Track 6 cannot be verified as accurate (confidence 1) [B2C10833], AccurateRip returned [C4BC9D19]Track 7 cannot be verified as accurate (confidence 1) [43D85EFE], AccurateRip returned [F5388818]Track 8 cannot be verified as accurate (confidence 1) [10FD536F], AccurateRip returned [617C7401]Track 9 cannot be verified as accurate (confidence 1) [38AD4BA8], AccurateRip returned [EFD11678]Track 10 cannot be verified as accurate (confidence 1) [E7AA5C2D], AccurateRip returned [796996CA]Track 11 cannot be verified as accurate (confidence 1) [1A42AA01], AccurateRip returned [D0DAC238]

10 track(s) could not be verified as accurate 1 track(s) not present in the AccurateRip database

No tracks could be verified as accurateYou may have a different pressing from the one(s) in the database

End of status report


Трекер:  [ 29-Дек-2013 18:48 ]

  

Скачать .torrent

Размер .torrent файла 11 KB


Размер: 1.03 GB
Хэш (hash) релиза: c47c0d87531441fbeec66f240e6fae8310edb3f3

Еще никто не оставлял запись к записи скачать торрент . Будь первым!

!Обратная связь