Скачать через торрент музыку Битва Хоров. Сезон 02. Выпуск 01-10 бесплатно без регистрации torrent

Статистика раздачи
Размер:  56.48 GB   |    Зарегистрирован:  4 года 5 месяцев   |    .torrent скачан:  67 раз   |   
Раздают:  1  
   
загрузка...
 
Автор Сообщение

Galfimbul

avatar Galfimbul


Битва Хоров. Сезон 02. Выпуск 01-10 (из 10)

Жанр: Pop, Тв-шоу
Продолжительность: 01:30:00 / выпуск
Год выпуска: 2013

Описание: Где поют лучше: в Московской, Челябинской или Ростовской области? А может, в Краснодарском или Алтайском крае? Прошлой осенью мы и 8 команд из 8 городов пели в унисон. Теперь они ездят по стране с гастролями, их узнают на улицах, а у нас - новые герои. Восемь суперзвезд российской эстрады выбрали лучших певцов, чтобы принять участие в новом сезоне супершоу "Битва хоров". По воскресеньям на телеканале "Россия" в прямом эфире более 150 замечательных голосов будут петь лучшие песни вживую, в надежде стать знаменитыми и понравиться телезрителям. Суперзвезды будут ежедневно заниматься с участниками вокалом, а танцы команде каждого города будет ставить легендарный Пол Домейн и его помощники. Все это для того, чтобы каждую неделю каждый регион показывал новый номер, новое шоу, которое в прямом эфире оценят телезрители. Победитель получит славу и звание “Лучший хор России”. В прошлом году зрители решили отдать этот титул Екатеринбургу. Кто же получит его в этом году?

В непростой борьбе примут участие коллективы и их наставники:

Татьяна Буланова и хор из Воронежской области
Доминик Джокер и хор Алтайского края
Олег Газманов и хор из Краснодарского края
Дмитрий Маликов и хор Москвы, Московской области и городов Золотого кольца
Жасмин и хор из Татарстана
Слава и хор из Ростовской области
Виктор Дробыш и хор из Санкт-Петербурга и Ленинградской области
Михаил Бублик и хор из Челябинской области

Ведущие: Валерий Меладзе, Наталья Стефаненко, Потап
Доп. информация: Релиз -

Рип чистый. Без посторонних надписей. Выкладывается как есть.

Качество: HDTV 1080i
Контейнер: TS
Видео кодек: AVC
Аудио кодек: MP2
Видео: 1920x1080 (16:9) 25.000 fps 7 821 Kbps, 0.151 bit/pixel
Аудио: MPEG Audio 48000Hz stereo 192 Кбит/сек
GeneralID : 1 (0x1)Complete name : D:\Выкладка\Битва Хоров. Сезон 02 (2013, Pop, Тв-шоу, HDTV 1080i) (MYDIMKA)\01 выпуск (28.10.2013).tsFormat : MPEG-TSFile size : 5.52 GiBDuration : 1h 33mnOverall bit rate mode : VariableOverall bit rate : 8 431 Kbps

VideoID : 2911 (0xB5F)Menu ID : 1 (0x1)Format : AVCFormat/Info : Advanced Video CodecFormat profile : High@L4.0Format settings, CABAC : YesFormat settings, ReFrames : 3 framesCodec ID : 27Duration : 1h 33mnBit rate : 7 821 KbpsWidth : 1 920 pixelsHeight : 1 080 pixelsDisplay aspect ratio : 16:9Frame rate : 25.000 fpsColor space : YUVChroma subsampling : 4:2:0Bit depth : 8 bitsScan type : MBAFFBits/(Pixel*Frame) : 0.151Stream size : 5.12 GiB (93%)

AudioID : 2912 (0xB60)Menu ID : 1 (0x1)Format : MPEG AudioFormat version : Version 1Format profile : Layer 2Mode : Joint stereoMode extension : Intensity Stereo + MS StereoCodec ID : 3Duration : 1h 33mnBit rate mode : ConstantBit rate : 192 KbpsChannel count : 2 channelsSampling rate : 48.0 KHzCompression mode : LossyStream size : 129 MiB (2%)Language : Russian


Трекер:  [ 30-Дек-2013 11:28 ]

  

Скачать .torrent

Размер .torrent файла 72 KB


Размер: 56.48 GB
Хэш (hash) релиза: ccc471eaaa966c0f6c18babe5f1856f0158e255d

Еще никто не оставлял запись к записи скачать торрент Битва Хоров. Сезон 02. Выпуск 01-10 . Будь первым!

!Обратная связь