Скачать через торрент музыку бесплатно без регистрации torrent

Статистика раздачи
Размер:  308 MB   |    Зарегистрирован:  8 лет 7 месяцев   |    .torrent скачан:  164 раза   |   
Раздают:  1  
 

Скачать (Pop/Vocal) [CD] Andrea Bocelli - Love In Portofino - 2013, FLAC (image+.cue), lossless через torrent

 
 
Автор Сообщение

Galfimbul

avatar Galfimbul


Andrea Bocelli / Love In Portofino

Жанр: Pop/Vocal
Носитель: CD
Страна-производитель диска: Russia
Год издания: 2013
Издатель (лейбл): Пирато & Бандито
Страна: Italy
Аудиокодек: FLAC (*.flac)
Тип рипа: image+.cue
Битрейт аудио: lossless
Продолжительность: 36''55''''
Источник (релизер): RedHotBlues
Наличие сканов в содержимом раздачи: да
Треклист:
CD: Andrea Bocelli - Love In Portofino

01. Love In Portofino [0:03:32.08]
02. Il Nostro Incontro [0:03:25.48]
03. Qualche Stupido "Ti Amo" [0:02:45.42]
04. Anema E Core [0:04:14.17]
05. Corcovado - Quiet Nights Of Quiet Stars [0:03:36.10]
06. Quizas, Quizas, Quizas [0:03:18.34]
07. Perfidia [0:04:07.42]
08. Champagne [0:03:48.42]
09. Roma Nun Fa''La Stupida Stasera [0:04:13.37]
10. Love Me Tender [0:03:52.12]
Exact Audio Copy V1.0 beta 3 from 29. August 2011

Отчёт EAC об извлечении, выполненном 22. декабря 2013, 0:57

Andrea Bocelli / Love In Portofino

Дисковод: Optiarc DVD RW AD-7700S Adapter: 4 ID: 0

Режим чтения : ДостоверностьИспользование точного потока : ДаОтключение кэша аудио : ДаИспользование указателей C2 : Нет

Коррекция смещения при чтении : 48Способность читать области Lead-in и Lead-out : НетЗаполнение пропущенных сэмплов тишиной : ДаУдаление блоков с тишиной в начале и конце : НетПри вычислениях CRC использовались нулевые сэмплы : ДаИнтерфейс : Встроенный Win32-интерфейс для Win NT/2000

Выходной формат : Пользовательский кодировщикВыбранный битрейт : 896 kBit/sКачество : ВысокийДобавление ID3-тега : ДаУтилита сжатия : C:\Program Files\Exact Audio Copy\FLAC\FLAC.EXEДополнительные параметры : -6 -V -T "ARTIST=%artist%" -T "TITLE=%title%" -T "ALBUM=%albumtitle%" -T "DATE=%year%" -T "TRACKNUMBER=%tracknr%" -T "GENRE=%genre%" -T "COMMENT=%comment%" -T "BAND=%albuminterpret%" -T "ALBUMARTIST=%albuminterpret%" -T "COMPOSER=%composer%" %haslyrics%--tag-from-file=LYRICS="%lyricsfile%"%haslyrics% -T "DISCNUMBER=%cdnumber%" -T "TOTALDISCS=%totalcds%" -T "TOTALTRACKS=%numtracks%" %hascover%--picture="%coverfile%"%hascover% %source% -o %dest%

TOC извлечённого CD

Трек | Старт | Длительность | Начальный сектор | Конечный сектор --------------------------------------------------------------------- 1 | 0:00.00 | 3:32.08 | 0 | 15907 2 | 3:32.08 | 3:25.48 | 15908 | 31330 3 | 6:57.56 | 2:45.42 | 31331 | 43747 4 | 9:43.23 | 4:14.17 | 43748 | 62814 5 | 13:57.40 | 3:36.10 | 62815 | 79024 6 | 17:33.50 | 3:18.34 | 79025 | 93908 7 | 20:52.09 | 4:07.42 | 93909 | 112475 8 | 24:59.51 | 3:48.42 | 112476 | 129617 9 | 28:48.18 | 4:13.37 | 129618 | 148629 10 | 33:01.55 | 3:52.12 | 148630 | 166041

Характеристики диапазона извлечения и сообщения об ошибках

Выбранный диапазон

Имя файла C:\Documents and Settings\Admin\Рабочий стол\Andrea Bocelli - Love In Portofino - 2013 - 36''55''''\Andrea Bocelli - Love In Portofino.wav

Копирование прервано

Конец отчёта

==== Контрольная сумма отчёта 100D6DF0F7FF3453858457949D4D7E9E388DE2EA57FC0F43C450FAC16442FCFD ====

------------------------------------------------------------

Exact Audio Copy V1.0 beta 3 from 29. August 2011

Отчёт EAC об извлечении, выполненном 22. декабря 2013, 1:13

Andrea Bocelli / Love In Portofino

Дисковод: PLEXTOR DVDR PX-750A Adapter: 1 ID: 1

Режим чтения : ДостоверностьИспользование точного потока : ДаОтключение кэша аудио : ДаИспользование указателей C2 : Нет

Коррекция смещения при чтении : 102Способность читать области Lead-in и Lead-out : НетЗаполнение пропущенных сэмплов тишиной : ДаУдаление блоков с тишиной в начале и конце : НетПри вычислениях CRC использовались нулевые сэмплы : ДаИнтерфейс : Встроенный Win32-интерфейс для Win NT/2000

Выходной формат : Пользовательский кодировщикВыбранный битрейт : 896 kBit/sКачество : ВысокийДобавление ID3-тега : ДаУтилита сжатия : C:\Program Files\Exact Audio Copy\FLAC\FLAC.EXEДополнительные параметры : -6 -V -T "ARTIST=%artist%" -T "TITLE=%title%" -T "ALBUM=%albumtitle%" -T "DATE=%year%" -T "TRACKNUMBER=%tracknr%" -T "GENRE=%genre%" -T "COMMENT=%comment%" -T "BAND=%albuminterpret%" -T "ALBUMARTIST=%albuminterpret%" -T "COMPOSER=%composer%" %haslyrics%--tag-from-file=LYRICS="%lyricsfile%"%haslyrics% -T "DISCNUMBER=%cdnumber%" -T "TOTALDISCS=%totalcds%" -T "TOTALTRACKS=%numtracks%" %hascover%--picture="%coverfile%"%hascover% %source% -o %dest%

TOC извлечённого CD

Трек | Старт | Длительность | Начальный сектор | Конечный сектор --------------------------------------------------------------------- 1 | 0:00.00 | 3:32.08 | 0 | 15907 2 | 3:32.08 | 3:25.48 | 15908 | 31330 3 | 6:57.56 | 2:45.42 | 31331 | 43747 4 | 9:43.23 | 4:14.17 | 43748 | 62814 5 | 13:57.40 | 3:36.10 | 62815 | 79024 6 | 17:33.50 | 3:18.34 | 79025 | 93908 7 | 20:52.09 | 4:07.42 | 93909 | 112475 8 | 24:59.51 | 3:48.42 | 112476 | 129617 9 | 28:48.18 | 4:13.37 | 129618 | 148629 10 | 33:01.55 | 3:52.12 | 148630 | 166041

Характеристики диапазона извлечения и сообщения об ошибках

Выбранный диапазон

Имя файла C:\Documents and Settings\Admin\Рабочий стол\Andrea Bocelli - Love In Portofino - 2013 - 36''55''''\Andrea Bocelli - Love In Portofino.wav

Пиковый уровень 100.0 % Скорость извлечения 6.9 X Качество диапазона 100.0 % CRC теста C230C13D CRC копии C230C13D Копирование... OK

Ошибок не произошло

Конец отчёта

==== Контрольная сумма отчёта 7DECC7BF62BC614C8BECC68DBE0F5A21EC8C889A88A8E3F9EEF0D842C22F02E2 ====
REM GENRE VocalREM DATE 2013REM DISCID 7B08A50AREM COMMENT "ExactAudioCopy v1.0b3"PERFORMER "Andrea Bocelli"TITLE "Love In Portofino"FILE "Andrea Bocelli - Love In Portofino.flac" WAVE TRACK 01 AUDIO TITLE "Love In Portofino" PERFORMER "Andrea Bocelli" FLAGS DCP INDEX 01 00:00:00 TRACK 02 AUDIO TITLE "Il Nostro Incontro" PERFORMER "Andrea Bocelli" FLAGS DCP INDEX 01 03:32:08 TRACK 03 AUDIO TITLE "Qualche Stupido ''Ti Amo''" PERFORMER "Andrea Bocelli" FLAGS DCP INDEX 01 06:57:56 TRACK 04 AUDIO TITLE "Anema E Core" PERFORMER "Andrea Bocelli" FLAGS DCP INDEX 01 09:43:23 TRACK 05 AUDIO TITLE "Corcovado - Quiet Nights Of Quiet Stars" PERFORMER "Andrea Bocelli" FLAGS DCP INDEX 01 13:57:40 TRACK 06 AUDIO TITLE "Quizas, Quizas, Quizas" PERFORMER "Andrea Bocelli" FLAGS DCP INDEX 01 17:33:50 TRACK 07 AUDIO TITLE "Perfidia" PERFORMER "Andrea Bocelli" FLAGS DCP INDEX 01 20:52:09 TRACK 08 AUDIO TITLE "Champagne" PERFORMER "Andrea Bocelli" FLAGS DCP INDEX 01 24:59:51 TRACK 09 AUDIO TITLE "Roma Nun Fa''La Stupida Stasera" PERFORMER "Andrea Bocelli" FLAGS DCP INDEX 01 28:48:18 TRACK 10 AUDIO TITLE "Love Me Tender" PERFORMER "Andrea Bocelli" FLAGS DCP INDEX 01 33:01:55
-----------------------

DON''T MODIFY THIS FILE

-----------------------

PERFORMER: auCDtect Task Manager, ver. 1.5.1RC4 build 1.5.1.5Copyright (c) 2008-2010 y-soft. All rights reservedhttp://y-soft.org

ANALYZER: auCDtect: CD records authenticity detector, version 0.8.2Copyright (c) 2004 Oleg Berngardt. All rights reserved.Copyright (c) 2004 Alexander Djourik. All rights reserved.

FILE: Andrea Bocelli - Love In Portofino.flac Size: 224858017 Hash: 53E752BAFFE6028CA64F7ED458AF38CA Accuracy: -m0 Conclusion: CDDA 100% Signature: F8E59870462F96EEC0DE7C8E58896F0E5E210821


Внимание! AdBlock блокирует показ скриншотов, все вопросы к разработчикам )))
Трекер:  [ 30-Дек-2013 13:45 ]

  

Скачать .torrent

Размер .torrent файла 13 KB


Размер: 308 MB
Хэш (hash) релиза: ba4182aef035a1e329f8367c8289ef2f108fc2f6

Еще никто не оставлял запись к записи скачать торрент . Будь первым!

!Обратная связь