Скачать через торрент музыку бесплатно без регистрации torrent

Статистика раздачи
Размер:  1.1 GB   |    Зарегистрирован:  7 лет 8 месяцев   |    .torrent скачан:  196 раз   |   
Раздают:  1  
 

Скачать (Italo Disco) [CD] VA - Italo Holiday Vol.1 & Vol.2 - 2013, FLAC (image+.cue), lossless через torrent

 
 
Автор Сообщение

Galfimbul

avatar Galfimbul


Italo Holiday Vol.1 & Vol.2

Жанр: Italo Disco
Носитель: CD
Страна-производитель диска: Netherlands
Год издания: 2013
Издатель (лейбл): Beach Club Records
Номер по каталогу: BCD 8001 & BCD 8002
Страна: Netherlands
Аудиокодек: FLAC (*.flac)
Тип рипа: image+.cue
Битрейт аудио: lossless
Продолжительность: 1:18:56 & 1:19:51
Источник (релизер): Оригинальные CD
Наличие сканов в содержимом раздачи: нет
Треклист:
Vol. 1:
01. Ranger – Time 8:37
02. Angelico – Another World 7:20
03. Momento – Dark Is The Night 7:48
04. Aldo Lesina – Look Me In The Eyes 6:30
05. Alan Brando – I Wanna Love You 5:51
06. Ken Martina – Memories 6:42
07. Marco Bardi – My Romance 6:43
08. R&M – Holiday 7:20
09. Boris Zhivago – No More Love 6:26
10. Tommy Sun – Magic Carillon 6:54
11. Elario Dante – Runaway 8:35

Vol. 2:
1. Emmy Care - Once In A lLfetime (Dream Mix)
2. Boris Zhivago - Russian Girl (Summer Mix)
3. Limelight - Forever Love (Album Mix)
4. Aldo Lesina - Together (Extended)
5. Ranger - Breaking My Heart (Disco Mix)
6. Boy Blue - Tears (Euro Mix)
7. Marco Polo - Dont Stop (Disco Mix)
8. Alan Brando - Heartbeat (Vocal)
9. Tommy Sun - No More In Love (Italo Mix)
10. Casanova - Holiday (Love Mix)
11. Cabermatic - Alien Invasion (Original Edit II)
12. Casarano feat Elise Dean - Fairy Tale (In My Heart) (Extended)
[pre]Exact Audio Copy V1.0 beta 3 from 29. August 2011

Отчёт EAC об извлечении, выполненном 1. января 2014, 22:45

Various / Italo Holiday Vol. 1

Дисковод: Optiarc DVD RW AD-7260S Adapter: 4 ID: 1

Режим чтения : Достоверность
Использование точного потока : Да
Отключение кэша аудио : Да
Использование указателей C2 : Нет

Коррекция смещения при чтении : 48
Способность читать области Lead-in и Lead-out : Нет
Заполнение пропущенных сэмплов тишиной : Да
Удаление блоков с тишиной в начале и конце : Нет
При вычислениях CRC использовались нулевые сэмплы : Да
Интерфейс : Встроенный Win32-интерфейс для Win NT/2000

Выходной формат : Пользовательский кодировщик
Выбранный битрейт : 768 kBit/s
Качество : Высокий
Добавление ID3-тега : Нет
Утилита сжатия : C:\Program Files\Exact Audio Copy\FLAC\FLAC.EXE
Дополнительные параметры : -6 -V -T "ARTIST=%artist%" -T "TITLE=%title%" -T "ALBUM=%albumtitle%" -T "DATE=%year%" -T "TRACKNUMBER=%tracknr%" -T "GENRE=%genre%" -T "COMMENT=%comment%" -T "BAND=%albuminterpret%" -T "ALBUMARTIST=%albuminterpret%" -T "COMPOSER=%composer%" %haslyrics%--tag-from-file=LYRICS="%lyricsfile%"%haslyrics% -T "DISCNUMBER=%cdnumber%" -T "TOTALDISCS=%totalcds%" -T "TOTALTRACKS=%numtracks%" %hascover%--picture="%coverfile%"%hascover% %source% -o %dest%

TOC извлечённого CD

Трек | Старт | Длительность | Начальный сектор | Конечный сектор
---------------------------------------------------------------------
1 | 0:00.00 | 8:39.48 | 0 | 38972
2 | 8:39.48 | 7:22.00 | 38973 | 72122
3 | 16:01.48 | 7:50.67 | 72123 | 107439
4 | 23:52.40 | 6:18.20 | 107440 | 135809
5 | 30:10.60 | 5:53.65 | 135810 | 162349
6 | 36:04.50 | 6:44.00 | 162350 | 192649
7 | 42:48.50 | 6:45.21 | 192650 | 223045
8 | 49:33.71 | 7:22.49 | 223046 | 256244
9 | 56:56.45 | 6:28.19 | 256245 | 285363
10 | 63:24.64 | 6:56.28 | 285364 | 316591
11 | 70:21.17 | 8:35.34 | 316592 | 355250

Характеристики диапазона извлечения и сообщения об ошибках

Выбранный диапазон

Имя файла D:\Various - Italo Holiday Vol. 1.wav

Пиковый уровень 96.7 %
Скорость извлечения 4.5 X
Качество диапазона 100.0 %
CRC теста 002647F3
CRC копии 002647F3
Копирование... OK

Ошибок не произошло

AccurateRip: сводка

Трек 1 : извлечено точно (доверие 1) [C8371597] (AR v2)
Трек 2 : извлечено точно (доверие 1) [0BD24D76] (AR v2)
Трек 3 : извлечено точно (доверие 1) [4F008EA2] (AR v2)
Трек 4 : извлечено точно (доверие 1) [D44C53C7] (AR v2)
Трек 5 : извлечено точно (доверие 1) [87F8A128] (AR v2)
Трек 6 : извлечено точно (доверие 1) [53458992] (AR v2)
Трек 7 : извлечено точно (доверие 1) [2F47A759] (AR v2)
Трек 8 : извлечено точно (доверие 1) [E0EAE6A2] (AR v2)
Трек 9 : извлечено точно (доверие 1) [60F2E03E] (AR v2)
Трек 10 : извлечено точно (доверие 1) [2F3FDBB0] (AR v2)
Трек 11 : извлечено точно (доверие 1) [1A18721B] (AR v2)

Все треки извлечены точно

Конец отчёта

==== Контрольная сумма отчёта 98C8E58F72E58E4B2A47572FD82287C748FF5EBD18E7C94E1E074EA9D30F153B ====
Exact Audio Copy V1.0 beta 3 from 29. August 2011

Отчёт EAC об извлечении, выполненном 1. января 2014, 23:33

Various / Italo Holiday Vol.2

Дисковод: Optiarc DVD RW AD-7260S Adapter: 4 ID: 1

Режим чтения : ДостоверностьИспользование точного потока : ДаОтключение кэша аудио : ДаИспользование указателей C2 : Нет

Коррекция смещения при чтении : 48Способность читать области Lead-in и Lead-out : НетЗаполнение пропущенных сэмплов тишиной : ДаУдаление блоков с тишиной в начале и конце : НетПри вычислениях CRC использовались нулевые сэмплы : ДаИнтерфейс : Встроенный Win32-интерфейс для Win NT/2000

Выходной формат : Пользовательский кодировщикВыбранный битрейт : 768 kBit/sКачество : ВысокийДобавление ID3-тега : НетУтилита сжатия : C:\Program Files\Exact Audio Copy\FLAC\FLAC.EXEДополнительные параметры : -6 -V -T "ARTIST=%artist%" -T "TITLE=%title%" -T "ALBUM=%albumtitle%" -T "DATE=%year%" -T "TRACKNUMBER=%tracknr%" -T "GENRE=%genre%" -T "COMMENT=%comment%" -T "BAND=%albuminterpret%" -T "ALBUMARTIST=%albuminterpret%" -T "COMPOSER=%composer%" %haslyrics%--tag-from-file=LYRICS="%lyricsfile%"%haslyrics% -T "DISCNUMBER=%cdnumber%" -T "TOTALDISCS=%totalcds%" -T "TOTALTRACKS=%numtracks%" %hascover%--picture="%coverfile%"%hascover% %source% -o %dest%

TOC извлечённого CD

Трек | Старт | Длительность | Начальный сектор | Конечный сектор --------------------------------------------------------------------- 1 | 0:00.00 | 6:23.61 | 0 | 28785 2 | 6:23.61 | 6:22.52 | 28786 | 57487 3 | 12:46.38 | 6:07.40 | 57488 | 85052 4 | 18:54.03 | 6:59.64 | 85053 | 116541 5 | 25:53.67 | 7:17.36 | 116542 | 149352 6 | 33:11.28 | 6:39.18 | 149353 | 179295 7 | 39:50.46 | 6:22.47 | 179296 | 207992 8 | 46:13.18 | 6:29.00 | 207993 | 237167 9 | 52:42.18 | 6:00.07 | 237168 | 264174 10 | 58:42.25 | 6:05.65 | 264175 | 291614 11 | 64:48.15 | 5:33.32 | 291615 | 316621 12 | 70:21.47 | 9:29.31 | 316622 | 359327

Характеристики диапазона извлечения и сообщения об ошибках

Выбранный диапазон

Имя файла D:\Various - Italo Holiday Vol.2.wav

Пиковый уровень 86.0 % Скорость извлечения 4.6 X Качество диапазона 100.0 % CRC теста 27CB1587 CRC копии 27CB1587 Копирование... OK

Ошибок не произошло

AccurateRip: сводка

Трек 1 отсутствует в базе данныхТрек 2 отсутствует в базе данныхТрек 3 отсутствует в базе данныхТрек 4 отсутствует в базе данныхТрек 5 отсутствует в базе данныхТрек 6 отсутствует в базе данныхТрек 7 отсутствует в базе данныхТрек 8 отсутствует в базе данныхТрек 9 отсутствует в базе данныхТрек 10 отсутствует в базе данныхТрек 11 отсутствует в базе данныхТрек 12 отсутствует в базе данных

Ни одного трека нет в базе AccurateRip

Конец отчёта

==== Контрольная сумма отчёта 838BCA26544C4484FF4AAE4CC7A374D793548FF015054A5B6DB5599AC7003AD3 ====


Внимание! AdBlock блокирует показ скриншотов, все вопросы к разработчикам )))
Трекер:  [ 02-Янв-2014 00:40 ]

  

Скачать .torrent

Размер .torrent файла 12 KB


Размер: 1.1 GB
Хэш (hash) релиза: 2dbc592dc1b3211e7e8c94b8f6380d0d012390ac

Еще никто не оставлял запись к записи скачать торрент . Будь первым!

!Обратная связь