Скачать через торрент музыку бесплатно без регистрации torrent

Статистика раздачи
Размер:  499 MB   |    Зарегистрирован:  5 лет 10 месяцев   |    .torrent скачан:  81 раз   |   
Раздают:  1  
 

Скачать (Gothic Metal) [CD] Poisonblack - A Dead Heavy Day (Japan MICP-10763) - 2008, FLAC (image+.cue), lossless через torrent

 
загрузка...
 
Автор Сообщение

Galfimbul

avatar Galfimbul


Poisonblack / A Dead Heavy Day (Japan MICP-10763)

Жанр: Gothic Metal
Носитель: CD
Страна-производитель диска: Japan
Год издания: 2008
Издатель (лейбл): Avalon
Номер по каталогу: MICP-10763
Страна: Finland
Аудиокодек: FLAC (*.flac)
Тип рипа: image+.cue
Битрейт аудио: lossless
Продолжительность: 1:01:15
Источник (релизер): Собственный рип
Наличие сканов в содержимом раздачи: да
Треклист:
01. Introuder
02. Diane
03. Left Behind
04. Bear The Cross
05. A Dead Heavy Day
06. Me, Myself & I
07. X
08. Human-Compost
09. The Days Between
10. Hatelove
11. Lowlife
12. Only You Can Tear Me Apart
13. The Living Dead (semi acoustic live)
Exact Audio Copy V1.0 beta 3 from 29. August 2011

EAC extraction logfile from 12. January 2014, 15:32

Poisonblack / A Dead Heavy Day

Used drive : PIONEER DVD-RW DVR-111D Adapter: 4 ID: 1

Read mode : SecureUtilize accurate stream : YesDefeat audio cache : YesMake use of C2 pointers : No

Read offset correction : 48Overread into Lead-In and Lead-Out : NoFill up missing offset samples with silence : YesDelete leading and trailing silent blocks : NoNull samples used in CRC calculations : YesUsed interface : Native Win32 interface for Win NT & 2000

Used output format : User Defined EncoderSelected bitrate : 128 kBit/sQuality : HighAdd ID3 tag : NoCommand line compressor : F:\Program Files\FLAC\flac.exeAdditional command line options : -V -8 -T "Date=%year%" -T "Genre=%genre%" %source%

TOC of the extracted CD

Track | Start | Length | Start sector | End sector --------------------------------------------------------- 1 | 0:00.00 | 0:31.31 | 0 | 2355 2 | 0:31.31 | 3:57.23 | 2356 | 20153 3 | 4:28.54 | 4:45.45 | 20154 | 41573 4 | 9:14.24 | 3:50.38 | 41574 | 58861 5 | 13:04.62 | 5:07.26 | 58862 | 81912 6 | 18:12.13 | 4:31.31 | 81913 | 102268 7 | 22:43.44 | 6:01.47 | 102269 | 129390 8 | 28:45.16 | 5:24.46 | 129391 | 153736 9 | 34:09.62 | 6:02.08 | 153737 | 180894 10 | 40:11.70 | 4:01.34 | 180895 | 199003 11 | 44:13.29 | 4:28.17 | 199004 | 219120 12 | 48:41.46 | 7:48.34 | 219121 | 254254 13 | 56:30.05 | 4:45.13 | 254255 | 275642

Range status and errors

Selected range

Filename D:\EAC - Hellixxx rip\Poisonblack - 2008 - A Dead Heavy Day (MICP-10763).wav

Peak level 100.0 % Extraction speed 7.4 X Range quality 99.9 % Test CRC B386790C Copy CRC B386790C Copy OK

No errors occurred

AccurateRip summary

Track 1 accurately ripped (confidence 1) [FB1362DF] (AR v1)Track 2 accurately ripped (confidence 1) [9FEBBD60] (AR v1)Track 3 accurately ripped (confidence 1) [B35DD47C] (AR v1)Track 4 accurately ripped (confidence 1) [60FD211A] (AR v1)Track 5 accurately ripped (confidence 1) [6A3D1BEA] (AR v1)Track 6 accurately ripped (confidence 1) [4F5580FD] (AR v1)Track 7 accurately ripped (confidence 1) [48C8D215] (AR v1)Track 8 accurately ripped (confidence 1) [CD969E6A] (AR v1)Track 9 accurately ripped (confidence 1) [1B4404BF] (AR v1)Track 10 accurately ripped (confidence 1) [8149C4B0] (AR v1)Track 11 accurately ripped (confidence 1) [D154F0EC] (AR v1)Track 12 accurately ripped (confidence 1) [7C222E5B] (AR v1)Track 13 accurately ripped (confidence 1) [983BEFD1] (AR v1)

All tracks accurately ripped

End of status report

==== Log checksum 3C6A55A573E635D6647424A8A8595349517F56E05CF2EDFC91CE5451C49763AB ====


Трекер:  [ 13-Янв-2014 14:37 ]

  

Скачать .torrent

Размер .torrent файла 21 KB


Размер: 499 MB
Хэш (hash) релиза: 8d7f101048f02e84dda368942f5e9ed26e5cbde2

Еще никто не оставлял запись к записи скачать торрент . Будь первым!

!Обратная связь