Скачать через торрент музыку бесплатно без регистрации torrent

Статистика раздачи
Размер:  461 MB   |    Зарегистрирован:  5 лет 10 месяцев   |    .torrent скачан:  70 раз   |   
Раздают:  1  
 

Скачать (Experimental Rock, Fusion) [CD] Guts! - Ardense - 1996, FLAC (image+.cue), lossless через torrent

 
загрузка...
 
Автор Сообщение

Galfimbul

avatar Galfimbul


Guts! / Ardense

Жанр: Experimental Rock, Fusion
Носитель: CD
Страна-производитель диска: Austria
Год издания: 1996
Издатель (лейбл): Carbon 7
Номер по каталогу: C7-022
Страна: Belgium
Аудиокодек: FLAC (*.flac)
Тип рипа: image+.cue
Битрейт аудио: lossless
Продолжительность: 52:43
Источник (релизер): оригинальный диск
Наличие сканов в содержимом раздачи: да
Треклист:
01. Les P''tits papiers
02. Le monde bleu
03. Sois un homme
04. Indifference
05. Trognon d''pomme
06. Le copain de l''ami
07. Isabelle
08. Je te hais
09. Les fossoyeurs
10. Fever
11. Jalousie
12. Tu deambules
13. J'' (ne) veux plus!
Exact Audio Copy V1.0 beta 3 from 29. August 2011

Отчёт EAC об извлечении, выполненном 20. января 2014, 16:32

Guts! / Ardense

Дисковод: Optiarc DVD RW AD-7191S Adapter: 3 ID: 0

Режим чтения : ДостоверностьИспользование точного потока : ДаОтключение кэша аудио : ДаИспользование указателей C2 : Нет

Коррекция смещения при чтении : 6Способность читать области Lead-in и Lead-out : НетЗаполнение пропущенных сэмплов тишиной : ДаУдаление блоков с тишиной в начале и конце : НетПри вычислениях CRC использовались нулевые сэмплы : ДаИнтерфейс : Встроенный Win32-интерфейс для Win NT/2000

Выходной формат : Пользовательский кодировщикВыбранный битрейт : 768 kBit/sКачество : ВысокийДобавление ID3-тега : НетУтилита сжатия : E:\Program Files\Exact Audio Copy\FLAC\FLAC.EXEДополнительные параметры : -6 -V -T "ARTIST=%artist%" -T "TITLE=%title%" -T "ALBUM=%albumtitle%" -T "DATE=%year%" -T "TRACKNUMBER=%tracknr%" -T "GENRE=%genre%" -T "COMMENT=%comment%" -T "BAND=%albuminterpret%" -T "ALBUMARTIST=%albuminterpret%" -T "COMPOSER=%composer%" %haslyrics%--tag-from-file=LYRICS="%lyricsfile%"%haslyrics% -T "DISCNUMBER=%cdnumber%" -T "TOTALDISCS=%totalcds%" -T "TOTALTRACKS=%numtracks%" %hascover%--picture="%coverfile%"%hascover% %source% -o %dest%

TOC извлечённого CD

Трек | Старт | Длительность | Начальный сектор | Конечный сектор --------------------------------------------------------------------- 1 | 0:00.00 | 3:41.32 | 0 | 16606 2 | 3:41.32 | 6:01.43 | 16607 | 43724 3 | 9:43.00 | 4:25.55 | 43725 | 63654 4 | 14:08.55 | 3:20.72 | 63655 | 78726 5 | 17:29.52 | 2:05.53 | 78727 | 88154 6 | 19:35.30 | 3:20.35 | 88155 | 103189 7 | 22:55.65 | 3:29.20 | 103190 | 118884 8 | 26:25.10 | 6:28.12 | 118885 | 147996 9 | 32:53.22 | 2:05.50 | 147997 | 157421 10 | 34:58.72 | 1:34.63 | 157422 | 164534 11 | 36:33.60 | 4:32.00 | 164535 | 184934 12 | 41:05.60 | 5:08.57 | 184935 | 208091 13 | 46:14.42 | 6:29.05 | 208092 | 237271

Характеристики диапазона извлечения и сообщения об ошибках

Выбранный диапазон

Имя файла F:\Torrent\Guts! - Ardense\Guts! - Ardense.wav

Пиковый уровень 100.0 % Скорость извлечения 1.2 X Качество диапазона 99.9 % CRC копии 3E939F21 Копирование... OK

Ошибок не произошло

AccurateRip: сводка

Трек 1 отсутствует в базе данныхТрек 2 отсутствует в базе данныхТрек 3 отсутствует в базе данныхТрек 4 отсутствует в базе данныхТрек 5 отсутствует в базе данныхТрек 6 отсутствует в базе данныхТрек 7 отсутствует в базе данныхТрек 8 отсутствует в базе данныхТрек 9 отсутствует в базе данныхТрек 10 отсутствует в базе данныхТрек 11 отсутствует в базе данныхТрек 12 отсутствует в базе данныхТрек 13 отсутствует в базе данных

Ни одного трека нет в базе AccurateRip

Конец отчёта

==== Контрольная сумма отчёта 7EFEA7F70CE5142F7D1FC4D4FD6DE5B1260B7185C63C2D5EE5F1FDE4C82382AC ====
Fabienne Vandenplas - vocals
Ariane Plumerel - violin
Luv van Lieshout - trumpet, flugelhorn
Eric Lemaitre - guitar, trumpet
Matvei Bilis - guitar
Guy Segers - bass
Thierry Carcan - drums


Трекер:  [ 20-Янв-2014 19:02 ]

  

Скачать .torrent

Размер .torrent файла 19 KB


Размер: 461 MB
Хэш (hash) релиза: 0abd642822219f6995c442f6cdd4a72191107047

Еще никто не оставлял запись к записи скачать торрент . Будь первым!

!Обратная связь