ee Ln Survivr torrent

UnionPeer.org . . UnionPeer.org 2014 2015 . .

ee Ln Survivr .torrent

640 MB   |    :  5 7    |    .torrent :  60    |   
1  
   
...
 

Galfimbul

avatar Galfimbul



Live to Tell the Story
: Lone Survivor
: 2013 .
C:
: , ,
: 02:00:47
: (, ) [ "Paradox"]
:

: , , , , , , , , ,
:
, 2005 . . , , . , . : . , , .


: DVDScr
: DVDScr
: MP4
: H.264
: AAC
: MPEG-4 AVC Video (H.264) / 480x208 / 608 kbps / 23.976 fps / 40:17 / Main Profile 3.0
: AAC, 2 channels, 48 kHz, 128 kbps
General
Complete name : D:\PSP\\\.2013.DVDScr.mp4
Format : MPEG-4
Format profile : Base Media
Codec ID : isom
File size : 640 MiB
Duration : 2h 0mn
Overall bit rate mode : Variable
Overall bit rate : 741 Kbps
Encoded date : UTC 2014-01-19 15:01:16
Tagged date : UTC 2014-01-19 15:01:16

Video
ID : 1
Format : AVC
Format/Info : Advanced Video Codec
Format profile : Main@L3.0
Format settings, CABAC : Yes
Format settings, ReFrames : 3 frames
Codec ID : avc1
Codec ID/Info : Advanced Video Coding
Duration : 2h 0mn
Bit rate : 609 Kbps
Maximum bit rate : 3 929 Kbps
Width : 480 pixels
Height : 208 pixels
Display aspect ratio : 2.35:1
Frame rate mode : Constant
Frame rate : 23.976 fps
Color space : YUV
Chroma subsampling : 4:2:0
Bit depth : 8 bits
Scan type : Progressive
Bits/(Pixel*Frame) : 0.254
Stream size : 526 MiB (82%)
Writing library : x264 core 130 r2273 b3065e6
Encoding settings : cabac=1 / ref=3 / deblock=1:-2:-1 / analyse=0x1:0x131 / me=umh / subme=9 / psy=1 / psy_rd=1.00:0.20 / mixed_ref=1 / me_range=16 / chroma_me=1 / trellis=2 / 8x8dct=0 / cqm=0 / deadzone=21,11 / fast_pskip=0 / chroma_qp_offset=-3 / threads=12 / lookahead_threads=1 / sliced_threads=0 / nr=0 / decimate=0 / interlaced=0 / bluray_compat=0 / constrained_intra=0 / bframes=3 / b_pyramid=0 / b_adapt=2 / b_bias=0 / direct=1 / weightb=1 / open_gop=0 / weightp=2 / keyint=250 / keyint_min=23 / scenecut=40 / intra_refresh=0 / rc=cqp / mbtree=0 / qp=25 / ip_ratio=1.40 / pb_ratio=1.30 / aq=0
Encoded date : UTC 2014-01-19 15:01:16
Tagged date : UTC 2014-01-19 15:02:21

Audio
ID : 2
Format : AAC
Format/Info : Advanced Audio Codec
Format profile : LC
Codec ID : 40
Duration : 2h 0mn
Bit rate mode : Variable
Bit rate : 128 Kbps
Maximum bit rate : 157 Kbps
Channel(s) : 2 channels
Channel positions : Front: L R
Sampling rate : 48.0 KHz
Compression mode : Lossy
Delay relative to video : 83ms
Stream size : 111 MiB (17%)
Encoded date : UTC 2014-01-19 15:02:17
Tagged date : UTC 2014-01-19 15:02:21




 ·  , , FAQ-
:  [ 21--2014 20:12 ]

  

.torrent

.torrent 13 KB


: 640 MB
(hash) : 51dbd329b58d61de6f1d25a49b3b3662a824dc68
:
··
...

ee Ln Survivr . !

!