Скачать через торрент Она не пьет, не курит, не клеит парней, но она... болтает! Elle boit pas, elle fume pas, elle drague pas, mais... elle cause! Фильм бесплатно в хорошем качестве torrent

Скачивайте на UnionPeer.org фильмы через торрент без регистрации. Новинки кино в хорошем качестве через торрент. На UnionPeer.org можно скачать через торрент фильмы 2014 и 2015 годов. Самые новые фильмы.

Скачать торрент Она не пьет, не курит, не клеит парней, но она... болтает! Elle boit pas, elle fume pas, elle drague pas, mais... elle cause! бесплатно через .torrent фильм мультфильм сериал

Статистика раздачи
Размер:  1.09 GB   |    Зарегистрирован:  10 лет   |    .torrent скачан:  66 раз   |   
Раздают:  1  
   
 
Автор Сообщение

Galfimbul

avatar Galfimbul


Она не пьет, не курит, не клеит парней, но она... болтает! / Elle boit pas, elle fume pas, elle drague pas, mais... elle cause!

Страна: Франция, Gaumont International
Жанр: Комедия
Год выпуска: 1969
Продолжительность: 01:15:35

Перевод: Одноголосый закадровый SATKUR
Cубтитры: нет
Оригинальная аудиодорожка: французский

Режиссер: Мишель Одияр / Michel Audiard

В ролях: Анни Жирардо, Бернар Блие, Мирей Дарк, Жан Ле Пулен, Сим, Мишлин Люссьони, Анисе Альвина, Жан Карме, Робер Дальбан, Эвелин Дресс

Описание: У Жермен, домработницы, есть три клиента: заместитель кассира в кредитном банке, телеведущая и воспитатель детей. Жермен узнаёт их секреты (довольно непристойные). Умело раскрывая эти секреты, она добивается того, что кассир начинает шантажировать телеведущую, которая начинает шантажировать воспитателя, который начинает шантажировать кассира... и так по кругу. Это третий фильм в карьере Мишеля Одияра в качестве режиссёра с тонко прописанными диалогами для любимых режиссёром актёров - Анни Жирардо, Бернара Блие, Мирей Дарк и Сима.

Доп. информация: Озвучено по субтитрам перевода Lisok

Сэмпл: http://multi-up.com/942979

Качество видео: DVDRip
Формат видео: AVI

Видео: 624x352 (16:9), 25,000 fps, XVID ~1668 kbps avg, 0.304 bit/pixel
Аудио 1: 48 kHz, AC3 Dolby Digital, 2/0 (L,R) ch, ~192.00 kbps - русский
Аудио 2: 48 kHz, AC3 Dolby Digital, 2/0 (L,R) ch, ~192.00 kbps - франзузкий
Общее
Полное имя : D:\FILM\F-2014\Disk-20\Elle.boit.pas.1969.Fr.[vo.satkur+fr].AC3.Rus\Elle.boit.pas.1969.Fr.[vo.satkur+fr].AC3.Rus.avi
Формат : AVI
Формат/Информация : Audio Video Interleave
Размер файла : 1,09 Гбайт
Продолжительность : 1 ч. 15 м.
Общий поток : 2067 Кбит/сек
Программа кодирования : VirtualDubModRus 1.5.10.2 (build 2542/release)
Библиотека кодирования : VirtualDubMod build 2542/release

Видео
Идентификатор : 0
Формат : MPEG-4 Visual
Профиль формата : Simple@L1
Параметр BVOP формата : Нет
Параметр QPel формата : Нет
Параметр GMC формата : Без точки перехода
Параметр матрицы формата : Default (H.263)
Идентификатор кодека : XVID
Идентификатор кодека/Подсказка : XviD
Продолжительность : 1 ч. 15 м.
Битрейт : 1668 Кбит/сек
Ширина : 624 пикселя
Высота : 352 пикселя
Соотношение сторон : 16:9
Частота кадров : 25,000 кадров/сек
Цветовое пространство : YUV
Субдискретизация насыщенности : 4:2:0
Битовая глубина : 8 бит
Тип развёртки : Прогрессивная
Метод сжатия : С потерями
Бит/(Пиксели*Кадры) : 0.304
Размер потока : 902 Мбайт (81%)
Библиотека кодирования : Lavc52.84.0

Аудио #1
Идентификатор : 1
Формат : AC-3
Формат/Информация : Audio Coding 3
Расширение режима : CM (complete main)
Параметр Endianness формата : Big
Идентификатор кодека : 2000
Продолжительность : 1 ч. 15 м.
Вид битрейта : Постоянный
Битрейт : 192 Кбит/сек
Каналы : 2 канала
Расположение каналов : Front: L R
Частота : 48,0 КГц
Битовая глубина : 16 бит
Метод сжатия : С потерями
Размер потока : 104 Мбайт (9%)
Выравнивание : Разделение по промежуткам
Продолжительность промежутка : 40 мс. (1,00 видеокадр)
Время предзагрузки промежутка : 500 мс.

Аудио #2
Идентификатор : 2
Формат : AC-3
Формат/Информация : Audio Coding 3
Расширение режима : CM (complete main)
Параметр Endianness формата : Big
Идентификатор кодека : 2000
Продолжительность : 1 ч. 15 м.
Вид битрейта : Постоянный
Битрейт : 192 Кбит/сек
Каналы : 2 канала
Расположение каналов : Front: L R
Частота : 48,0 КГц
Битовая глубина : 16 бит
Метод сжатия : С потерями
Размер потока : 104 Мбайт (9%)
Выравнивание : Разделение по промежуткам
Продолжительность промежутка : 40 мс. (1,00 видеокадр)
Время предзагрузки промежутка : 500 мс.


Внимание! AdBlock блокирует показ скриншотов, все вопросы к разработчикам )))
Трекер:  [ 22-Янв-2014 19:55 ]

  

Скачать .torrent

Размер .torrent файла 11 KB


Размер: 1.09 GB
Хэш (hash) релиза: 05d5860ea6385c7677f34c6096fa05bb33397905
Подписка на обновления:

Еще никто не оставлял запись к записи скачать торрент Она не пьет, не курит, не клеит парней, но она... болтает! Elle boit pas, elle fume pas, elle drague pas, mais... elle cause! . Будь первым!

!Обратная связь