Скачать через торрент музыку бесплатно без регистрации torrent

Статистика раздачи
Размер:  291 MB   |    Зарегистрирован:  7 лет 8 месяцев   |    .torrent скачан:  85 раз   |   
Раздают:  1  
 

Скачать (Death/Black Metal) [CD] Animal Hate - A Witch Shall Be Born (digipack) - 2007, FLAC (image+.cue), lossless через torrent

 
 
Автор Сообщение

Galfimbul

avatar Galfimbul


Animal Hate / A Witch Shall Be Born (digipack)

Жанр: Death/Black Metal
Носитель: CD
Страна-производитель диска: Словакия
Год издания: 2007
Издатель (лейбл): Metal Age Productions
Номер по каталогу: MAP064
Страна: Чехия
Аудиокодек: FLAC (*.flac)
Тип рипа: image+.cue
Битрейт аудио: lossless
Продолжительность: 38:41
Источник (релизер): Оригинальный диск
Наличие сканов в содержимом раздачи: да
Треклист:
1. Bloody Red Crescent 04:15
2. She''s a Witch 03:16
3. Crucifiction 03:49
4. A Tyranny Shall Be Born 03:25
5. In the Darkness of Catacomb 04:07
6. Desert''s Wolves 03:11
7. Death Isn''t Dainty 03:04
8. Wings of the Vultures 03:19
9. What the New Day Will Bring 04:13
10. Through the Ages 06:02
Exact Audio Copy V1.0 beta 3 from 29. August 2011

EAC extraction logfile from 14. January 2014, 12:56

Animal Hate / ... A Witch Shall Be Born

Used drive : Optiarc DVD RW AD-7260S Adapter: 1 ID: 1

Read mode : SecureUtilize accurate stream : YesDefeat audio cache : YesMake use of C2 pointers : No

Read offset correction : 48Overread into Lead-In and Lead-Out : NoFill up missing offset samples with silence : YesDelete leading and trailing silent blocks : NoNull samples used in CRC calculations : YesUsed interface : Native Win32 interface for Win NT & 2000

Used output format : Internal WAV RoutinesSample format : 44.100 Hz; 16 Bit; Stereo

TOC of the extracted CD

Track | Start | Length | Start sector | End sector --------------------------------------------------------- 1 | 0:00.00 | 4:15.48 | 0 | 19172 2 | 4:15.48 | 3:16.47 | 19173 | 33919 3 | 7:32.20 | 3:49.00 | 33920 | 51094 4 | 11:21.20 | 3:25.19 | 51095 | 66488 5 | 14:46.39 | 4:07.30 | 66489 | 85043 6 | 18:53.69 | 3:11.64 | 85044 | 99432 7 | 22:05.58 | 3:04.44 | 99433 | 113276 8 | 25:10.27 | 3:18.69 | 113277 | 128195 9 | 28:29.21 | 4:13.16 | 128196 | 147186 10 | 32:42.37 | 6:02.13 | 147187 | 174349

Range status and errors

Selected range

Filename C:\Мои документы\Евгений Академик\Animal Hate - 2007 - ... A Witch Shall Be Born.wav

Peak level 100.0 % Extraction speed 3.6 X Range quality 99.9 % Test CRC E049F2D5 Copy CRC E049F2D5 Copy OK

No errors occurred

AccurateRip summary

Track 1 not present in databaseTrack 2 not present in databaseTrack 3 not present in databaseTrack 4 not present in databaseTrack 5 not present in databaseTrack 6 not present in databaseTrack 7 not present in databaseTrack 8 not present in databaseTrack 9 not present in databaseTrack 10 not present in database

None of the tracks are present in the AccurateRip database

End of status report

---- CUETools DB Plugin V2.1.4

[CTDB TOCID: jwXS.f3QBEA6iBkU1P6xsIxnW_0-] foundSubmit result: jwXS.f3QBEA6iBkU1P6xsIxnW_0- has been confirmedTrack | CTDB Status 1 | (1/1) Accurately ripped 2 | (1/1) Accurately ripped 3 | (1/1) Accurately ripped 4 | (1/1) Accurately ripped 5 | (1/1) Accurately ripped 6 | (1/1) Accurately ripped 7 | (1/1) Accurately ripped 8 | (1/1) Accurately ripped 9 | (1/1) Accurately ripped 10 | (1/1) Accurately ripped

==== Log checksum D2142D7D8EE0B78F741028FBD2CFD14EEFAC21E83FF9350AFE1767655A7C390D ====


Внимание! AdBlock блокирует показ скриншотов, все вопросы к разработчикам )))
Трекер:  [ 24-Янв-2014 19:07 ]

  

Скачать .torrent

Размер .torrent файла 12 KB


Размер: 291 MB
Хэш (hash) релиза: d58b1534faa5c87bc3f7cbaa78b600e171642115

Еще никто не оставлял запись к записи скачать торрент . Будь первым!

!Обратная связь