Скачать через торрент музыку бесплатно без регистрации torrent

Статистика раздачи
Размер:  277 MB   |    Зарегистрирован:  5 лет 6 месяцев   |    .torrent скачан:  106 раз   |   
Раздают:  1  
   
загрузка...
 
Автор Сообщение

Galfimbul

avatar Galfimbul


Patricia Vonne / Rattle My Cage
Жанр: Folk-Rock, Latin
Носитель: CD
Страна-производитель диска: USA
Год издания: 2013
Аудиокодек: FLAC (*.flac)
Тип рипа: image+.cue
Битрейт аудио: lossless
Продолжительность: 39:43
Источник (релизер): CD
Наличие сканов в содержимом раздачи: да
Треклист:

01. Rattle My Cage
02. Dark Mile
03. Ravage Your Heart
04. Que'' Maravilla
05. This Cat''s In The Doghouse
06. Bitter Need
07. Dulce Refugio
08. Paris Trance
09. Tequileros
10. Mexicali De Chispa
11. Bitter Need (Bonus Rock Version)
Exact Audio Copy V1.0 beta 3 from 29. August 2011

EAC extraction logfile from 24. January 2014, 18:19

Patricia Vonne / Rattle My Cage

Used drive : PLEXTOR DVDR PX-810SA Adapter: 3 ID: 0

Read mode : SecureUtilize accurate stream : YesDefeat audio cache : YesMake use of C2 pointers : No

Read offset correction : 48Overread into Lead-In and Lead-Out : NoFill up missing offset samples with silence : YesDelete leading and trailing silent blocks : NoNull samples used in CRC calculations : YesUsed interface : Native Win32 interface for Win NT & 2000

Used output format : User Defined EncoderSelected bitrate : 768 kBit/sQuality : HighAdd ID3 tag : NoCommand line compressor : C:\Program Files (x86)\Exact Audio Copy\FLAC\FLAC.EXEAdditional command line options : -6 -V -T "ARTIST=%artist%" -T "TITLE=%title%" -T "ALBUM=%albumtitle%" -T "DATE=%year%" -T "TRACKNUMBER=%tracknr%" -T "GENRE=%genre%" -T "COMMENT=%comment%" -T "BAND=%albuminterpret%" -T "ALBUMARTIST=%albuminterpret%" -T "COMPOSER=%composer%" %haslyrics%--tag-from-file=LYRICS="%lyricsfile%"%haslyrics% -T "DISCNUMBER=%cdnumber%" -T "TOTALDISCS=%totalcds%" -T "TOTALTRACKS=%numtracks%" %hascover%--picture="%coverfile%"%hascover% %source% -o %dest%

TOC of the extracted CD

Track | Start | Length | Start sector | End sector --------------------------------------------------------- 1 | 0:00.00 | 4:52.71 | 0 | 21970 2 | 4:52.71 | 4:06.51 | 21971 | 40471 3 | 8:59.47 | 4:51.20 | 40472 | 62316 4 | 13:50.67 | 4:28.72 | 62317 | 82488 5 | 18:19.64 | 2:56.19 | 82489 | 95707 6 | 21:16.08 | 4:10.25 | 95708 | 114482 7 | 25:26.33 | 2:51.71 | 114483 | 127378 8 | 28:18.29 | 2:40.50 | 127379 | 139428 9 | 30:59.04 | 3:03.35 | 139429 | 153188 10 | 34:02.39 | 2:09.61 | 153189 | 162924 11 | 36:12.25 | 3:30.42 | 162925 | 178716

Range status and errors

Selected range

Filename Z:\audio\Patricia Vonne - Rattle My Cage.wav

Peak level 100.0 % Extraction speed 7.0 X Range quality 100.0 % Test CRC 9D62B264 Copy CRC 9D62B264 Copy OK

No errors occurred

AccurateRip summary

Track 1 accurately ripped (confidence 1) [5EE4ABCC] (AR v2)Track 2 accurately ripped (confidence 1) [42295491] (AR v2)Track 3 accurately ripped (confidence 1) [7042C7DD] (AR v2)Track 4 accurately ripped (confidence 1) [EE0DC560] (AR v2)Track 5 accurately ripped (confidence 1) [821950AF] (AR v2)Track 6 accurately ripped (confidence 1) [BBC88A19] (AR v2)Track 7 accurately ripped (confidence 1) [08403648] (AR v2)Track 8 accurately ripped (confidence 1) [FCB0B90D] (AR v2)Track 9 accurately ripped (confidence 1) [F764C124] (AR v2)Track 10 accurately ripped (confidence 1) [E9D50911] (AR v2)Track 11 accurately ripped (confidence 1) [7EB1C3E3] (AR v2)

All tracks accurately ripped

End of status report

==== Log checksum 1B18AF70F4621E945173AA7C1DFD9D2900DD5B071C734B1A54D32DDF9829CF1C ====


Трекер:  [ 24-Янв-2014 19:07 ]

  

Скачать .torrent

Размер .torrent файла 11 KB


Размер: 277 MB
Хэш (hash) релиза: b49be51bb8f2f494b824c6104950481c503aa58f

Еще никто не оставлял запись к записи скачать торрент . Будь первым!

!Обратная связь